Завантажити та скачати торренти українською


Божевільний професор. Дилогія / The Nutty Professor. Dilogy (1996-2000) AVC/AVC 2xUkr

Нові коментарі

Нова тема   Відповісти
Останній раз роздавалося bodia87 (2016-12-06)
Автор Повідомлення
tarasyk98 
Поважний учасник


З нами з: 19.12.13
Востаннє: 05.12.16
Повідомлень: 201

2015-04-16 19:03  
Божевільний професор. Дилогія / The Nutty Professor. Dilogy (1996-2000) AVC/AVC 2xUkr

Божевільний професор. Дилогія / The Nutty Professor. Dilogy (1996-2000) AVC/AVC 2xUkr
Божевільний професор / The Nutty Professor (1996) AVC 2xUkr

Божевільний професор. Дилогія / The Nutty Professor. Dilogy (1996-2000) AVC/AVC 2xUkr

Жанр: комедія, романтичний, фантастика
Країна: США



Кінокомпанія: Imagine Entertainment
Режисер: Том Шедіак
Актори: Едді Мерфі, Джада Пінкет Смітт, Джеймс Кобурн, Ларрі Міллер, Дейв Чеппілль

Сюжет:
Кохання змушує професора Шермана Клампа, який страждає від надмірної повноти, провести над собою сміливий експеримент. Чудодійний препарат перетворює незграбного, але доброго і делікатного товстуна в нахабного гульвісу-ловеласа. Дві постаті геніального вченого вступають в боротьбу за право на існування. Неконтрольовані метаморфози героя породжують безліч комічних ситуацій.


Тривалість: 01:35:10
Якість: AVC
Відео:
кодек:
розмір кадру: 736 х 400
бітрейт: 1028 кб/с

Аудіо # 1:
мова: українська
переклад: багатоголосий закадровий
кодек: 2.0
бітрейт: 192 кб/с

Аудіо # 2:
мова: українська
переклад: двоголосий закадровий
кодек: 2.0
бітрейт: 192 кб/с
Скріншоти




Запис з ТБ: РОМЕО (Аудіо # 1), urij546724 та Hulk1987 (Аудіо # 2)
Синхронізація: patriot2305
Відеоріп:

Джерело:
Особиста оцінка: 0 - не дивився
Божевільний професор ІІ. Родина Клампів / Nutty Professor II. The Klumps (2000) AVC 2xUkr

Божевільний професор. Дилогія / The Nutty Professor. Dilogy (1996-2000) AVC/AVC 2xUkr


Жанр: комедія, романтичний, фантастика
Країна: США



Кінокомпанія: Universal Pictures, Imagine Entertainment, Shady Acres Entertainment
Режисер: Пітер Сігал
Актори: Едді Мерфі, Джанет Джексон, Ларрі Міллер, Джон Алес, Річард Гент та інші

Сюжет:
Красунчику Шерману пощастило двічі! По-перше, професор винайшов чудовий омолоджуючий еліксир, за який йому вже запропонували астрономічну суму. По-друге, Кламп «закохався по вуха» в чарівну викладачку Деніз Гейнс. І, що найголовніше, прекрасна Деніз відповідає Шерману взаємністю. Тут, здавалося б, і казці кінець, та ні. Ховається в гладкому тілі професора сексуально одержимий нахаба Бадді Лав, альтер-его скромника Клампа, виривається назовні, щоб перевернути все з ніг на голову!


Тривалість: 01:46:52
Якість: AVC
Відео:
кодек:
розмір кадру: 1280 х 688
бітрейт: 2481 кб/с

Аудіо # 1:
мова: українська
переклад: багатоголосий закадровий
кодек: 2.0
бітрейт: 192 кб/с

Аудіо # 2:
мова: українська
переклад: двоголосий закадровий
кодек: 2.0
бітрейт: 192 кб/с
MediaInfo
General
Unique ID : 184999270817717858255069132592738520898 (0x8B2D9043E13F50A5AC90BE5BC670CF42)
Complete name : D:\Фільми\The Nutty Professor. Dilogy (1996-2000) AVC.AVC [2xUkr] [Hurtom]\Nutty Professor II. The Klumps (2000) AVC [2xUkr] [Hurtom].mkv
Format : Matroska
Format version : Version 4 / Version 2
File size : 2.14 GiB
Duration : 1h 46mn
Overall bit rate : 2 862 Kbps
Encoded date : UTC 2015-04-17 16:21:59
Writing application : mkvmerge v7.1.0 ('Good Love') 64bit built on Jul 27 2014 13:06:55
Writing library : libebml v1.3.0 + libmatroska v1.4.1
_STATISTICS_WRITING_APP : mkvmerge v7.1.0 ('Good Love') 64bit built on Jul 27 2014 13:06:55
_STATISTICS_WRITING_DATE_UTC : 2015-04-17 16:21:59
_STATISTICS_TAGS : BPS DURATION NUMBER_OF_FRAMES NUMBER_OF_BYTES
DURATION : 01:46:42.021000000
NUMBER_OF_FRAMES : 153495
NUMBER_OF_BYTES : 1984286897

Video
ID : 1
Format : AVC
Format/Info : Advanced Video Codec
Format profile : [email protected]
Format settings, CABAC : Yes
Format settings, ReFrames : 8 frames
Codec ID : V_MPEG4/ISO/AVC
Duration : 1h 46mn
Bit rate : 2 481 Kbps
Width : 1 280 pixels
Height : 688 pixels
Display aspect ratio : 1.85:1
Frame rate mode : Constant
Frame rate : 23.976 fps
Color space : YUV
Chroma subsampling : 4:2:0
Bit depth : 8 bits
Scan type : Progressive
Bits/(Pixel*Frame) : 0.118
Stream size : 1.81 GiB (85%)
Writing library : core 125 r2208 d9d2288
Encoding settings : cabac=1 / ref=8 / deblock=1:-1:-1 / analyse=0x3:0x133 / me=umh / subme=11 / psy=1 / psy_rd=1.00:0.10 / mixed_ref=1 / me_range=24 / chroma_me=1 / trellis=2 / 8x8dct=1 / cqm=0 / deadzone=21,11 / fast_pskip=0 / chroma_qp_offset=-3 / threads=12 / lookahead_threads=2 / sliced_threads=0 / nr=0 / decimate=1 / interlaced=0 / bluray_compat=0 / constrained_intra=0 / bframes=3 / b_pyramid=2 / b_adapt=2 / b_bias=0 / direct=3 / weightb=1 / open_gop=0 / weightp=2 / keyint=250 / keyint_min=23 / scenecut=40 / intra_refresh=0 / rc_lookahead=50 / rc=2pass / mbtree=1 / bitrate=2481 / ratetol=1.0 / qcomp=0.60 / qpmin=0 / qpmax=69 / qpstep=4 / cplxblur=20.0 / qblur=0.5 / ip_ratio=1.40 / aq=1:1.00
Default : Yes
Forced : No

Audio #1
ID : 2
Format : AC-3
Format/Info : Audio Coding 3
Mode extension : CM (complete main)
Format settings, Endianness : Big
Codec ID : A_AC3
Duration : 1h 46mn
Bit rate mode : Constant
Bit rate : 192 Kbps
Channel(s) : 2 channels
Channel positions : Front: L R
Sampling rate : 48.0 KHz
Bit depth : 16 bits
Compression mode : Lossy
Stream size : 147 MiB (7%)
Default : Yes
Forced : No

Audio #2
ID : 3
Format : AC-3
Format/Info : Audio Coding 3
Mode extension : CM (complete main)
Format settings, Endianness : Big
Codec ID : A_AC3
Duration : 1h 46mn
Bit rate mode : Constant
Bit rate : 192 Kbps
Channel(s) : 2 channels
Channel positions : Front: L R
Sampling rate : 48.0 KHz
Bit depth : 16 bits
Compression mode : Lossy
Stream size : 147 MiB (7%)
Default : No
Forced : No
Скріншоти




Запис з ТБ: РОМЕО (Аудіо # 1), urij546724 та Hulk1987 (Аудіо # 2)
Синхронізація: patriot2305
Відеоріп:

Джерело:
Особиста оцінка: 0 - не дивився


Срібний реліз (на рейтинг впливає 50% завантаженого)
 Трекер:    Зареєстрований   

Завантажити / скачати фільм українською



відео для новачків



 Зареєстрований:   2015-04-17 19:31
 Розмір:   3.08 GB 
 Оцінка фільму:   10/10 (Голосів: 2)
   
Konfucius 
Управління
Управління


З нами з: 30.09.07
Востаннє: 06.12.16
Повідомлень: 4741

2015-04-19 22:18  
До другої частини бракує mediainfo.
Ваш часовий пояс: GMT + 2 Години

Нова тема   Відповісти