Завантажити та скачати торренти українською


Гра Престолів (Сезон 5) / Game of Thrones (Season 5) (2015) AVC

Нові коментарі

Нова тема   Відповісти
Автор Повідомлення
Drool 
VIP


З нами з: 17.04.10
Востаннє: 09.12.16
Повідомлень: 1270

2015-04-14 10:28  
Гра Престолів (Сезон 5) / Game of Thrones (Season 5) (2015) AVC

Жанр: пригодницький, драма, фентезі
Країна: США


Кінокомпанія / телеканал: Home Box Office, Television 360, Grok! Studio, Generator Entertainment, Bighead Littlehead, Embassy Films
Режисер: Девід Беніофф (David Benioff), Ден Вайс (D.B. Weiss)
Актори/ролі озвучують: Шон Бін (Sean Bean), Гаррі Ллойд (Harry Lloyd), Марк Едді (Mark Addy), Альфі Аллен (Alfie Allen), Ісаак Гемстед-Райт (Isaac Hempstead Wright), Джон Бредлі (John Bradley), Рон Донакі (Ron Donachie) та інші.

Сюжет:
Сюжет серіалу заснований на фентезійній сазі Джорджа Мартіна «Пісня льоду та полум'я»; кожному сезону відповідає одна книга гепталогії, з яких наразі написано п’ять книжок.

Події книг відбуваються на фоні політичних інтриг і, пізніше, громадянської війни в боротьбі за владу над вигаданим континентом Вестерос. Роберт Баратеон, король Семи Королівств, просить свого старого товариша Еддарда Старка стати його Рукою — головним радником. Еддард, підозрюючи, що його попередник на цій посаді був убитий, погоджується, щоб розслідувати обставини загибелі та захистити короля. У той же час родичі королеви, Ланністери, намагаються взяти Вестерос під свій повний контроль. Паралельно за морем останні нащадки королівської сім'ї Таргарієнів шукають союзників, здатних повернути їм трон Семи Королівств. Конфлікт між цими та іншими сім'ями, в тому числі Грейджоями, Таллі, Арренами та Тіреллами, призводить до війни. Між тим, на півночі, прокидається давнє зло. Серед війни і політичної плутанини, невелике братство, Нічна Варта, залишаються єдиними, хто стоїть між світом людей і мороком півночі.


Тривалість: 1 серія: ~55 хв. (цілком серій: 10)
Перелік серій
01. Прийдешні війни / The Wars to Come
02. Дім чорного та білого / The House of Black and White
03. High Sparrow / Верховний горобець
04. Sons of the Harpy / Сини Гарпії
05. Kill the Boy / Убий хлопця
06. Unbowed, Unbent, Unbroken / Не схилились, не зламались, не здались
07. The Gift / Подарунок
08. Hardhome / Суворий дім
09. The Dance of Dragons / Танець драконів
10. Mother's Mercy / Милість Матері
Якість: AVC (джерело - 1080p)
Відео:
кодек:
розмір кадру: 1024x576
бітрейт: ~1100 кб/с

Аудіо:
мова: українська
переклад: багатоголосий закадровий
кодек: 2.0
бітрейт: 192 кб/с

Джерело озвучення:
1-го епізоду + MediaInfo усієї роздачі
[info]: frame I:598 Avg QP:17,10 size: 54944
[info]: frame P:15049 Avg QP:20,29 size: 13691
[info]: frame B:58686 Avg QP:22,93 size: 3399
[info]: consecutive B-frames: 2,3% 2,3% 4,5% 11,0% 13,9% 55,0% 6,6% 1,6% 1,3% 0,4% 0,2% 0,6% 0,4%
[info]: mb I I16..4: 10,7% 72,5% 16,8%
[info]: mb P I16..4: 0,8% 4,6% 0,5% P16..4: 32,3% 36,4% 9,5% 1,3% 0,2% skip:14,4%
[info]: mb B I16..4: 0,0% 0,3% 0,0% B16..8: 32,5% 10,4% 1,2% direct: 1,8% skip:53,7% L0:39,2% L1:53,0% BI: 7,8%
[info]: 8x8 transform intra:75,9% inter:65,6%
[info]: direct mvs spatial:99,2% temporal:0,8%
[info]: coded y,uvDC,uvAC intra: 79,0% 73,3% 46,8% inter: 8,8% 7,1% 0,7%
[info]: i16 v,h,dc,p: 11% 23% 3% 63%
[info]: i8 v,h,dc,ddl,ddr,vr,hd,vl,hu: 10% 7% 6% 10% 14% 14% 13% 13% 13%
[info]: i4 v,h,dc,ddl,ddr,vr,hd,vl,hu: 11% 9% 6% 9% 14% 14% 12% 11% 13%
[info]: i8c dc,h,v,p: 35% 29% 20% 16%
[info]: Weighted P-Frames: Y:8,8% UV:5,8%
[info]: ref P L0: 58,2% 9,5% 13,6% 5,8% 4,0% 3,0% 2,4% 1,2% 0,9% 0,7% 0,6% 0,1% 0,0%
[info]: ref B L0: 89,1% 5,4% 2,5% 1,0% 0,7% 0,5% 0,4% 0,2% 0,1% 0,1%
[info]: ref B L1: 94,8% 5,2%
[info]: kb/s:1131,18
[14:31:13] mux: track 0, 74333 frames, 438352420 bytes, 1130,62 kbps, fifo 4096
[14:31:13] mux: track 1, 96928 frames, 74440704 bytes, 192,00 kbps, fifo 4096

General
Unique ID : 177026949085459632320813075977688420880 (0x852E2674DD7824190478321604859210)
Complete name : /mnt/disk_d/Video/Game of Thrones (Season 5) (2015) AVC [UKR] [UAGet]/Game.of.Thrones.S05E01.AVC.Ukr.uateam.tv.UAGet.mkv
Format : Matroska
Format version : Version 2
File size : 491 MiB
Duration : 51mn 40s
Overall bit rate : 1 328 Kbps
Writing application : HandBrake rev0
Writing library : libmkv 0.6.5

Video
ID : 1
Format : AVC
Format/Info : Advanced Video Codec
Format profile : [email protected]
Format settings, CABAC : Yes
Format settings, ReFrames : 11 frames
Codec ID : V_MPEG4/ISO/AVC
Duration : 51mn 40s
Bit rate : 1 131 Kbps
Width : 1 024 pixels
Height : 576 pixels
Display aspect ratio : 16:9
Frame rate mode : Constant
Frame rate : 23.976 fps
Color space : YUV
Chroma subsampling : 4:2:0
Bit depth : 8 bits
Scan type : Progressive
Bits/(Pixel*Frame) : 0.080
Stream size : 410 MiB (84%)
Writing library : core 142 r2389 956c8d8
Encoding settings : cabac=1 / ref=12 / deblock=1:-3:-3 / analyse=0x3:0x133 / me=umh / subme=11 / psy=1 / psy_rd=1,10:0,15 / mixed_ref=1 / me_range=32 / chroma_me=1 / trellis=2 / 8x8dct=1 / cqm=0 / deadzone=21,11 / fast_pskip=0 / chroma_qp_offset=-3 / threads=6 / lookahead_threads=1 / sliced_threads=0 / nr=0 / decimate=1 / interlaced=0 / bluray_compat=0 / constrained_intra=0 / bframes=12 / b_pyramid=1 / b_adapt=2 / b_bias=0 / direct=3 / weightb=1 / open_gop=0 / weightp=2 / keyint=240 / keyint_min=24 / scenecut=40 / intra_refresh=0 / rc=2pass / mbtree=0 / bitrate=1131 / ratetol=1,0 / qcomp=1,00 / qpmin=0 / qpmax=69 / qpstep=4 / cplxblur=20,0 / qblur=0,5 / ip_ratio=1,40 / pb_ratio=1,30 / aq=2:0,60
Language : English
Default : Yes
Forced : No
Color primaries : BT.709
Transfer characteristics : BT.709
Matrix coefficients : BT.709

Audio
ID : 2
Format : AC-3
Format/Info : Audio Coding 3
Mode extension : CM (complete main)
Format settings, Endianness : Big
Codec ID : A_AC3
Duration : 51mn 40s
Bit rate mode : Constant
Bit rate : 192 Kbps
Channel(s) : 2 channels
Channel positions : Front: L R
Sampling rate : 48.0 KHz
Bit depth : 16 bits
Compression mode : Lossy
Stream size : 71.0 MiB (14%)
Language : Ukrainian
Default : Yes
Forced : No

General
Unique ID : 101721826154822408502267182305861229808 (0x4C86E93DC79697744BEA667C5238DCF0)
Complete name : /mnt/disk_d/Video/Game of Thrones (Season 5) (2015) AVC [UKR] [UAGet]/Game.of.Thrones.S05E02.AVC.Ukr.uateam.tv.UAGet.mkv
Format : Matroska
Format version : Version 2
File size : 533 MiB
Duration : 56mn 12s
Overall bit rate : 1 326 Kbps
Writing application : HandBrake rev0
Writing library : libmkv 0.6.5
TITLE : Game of Thrones 05x02 release by messafan for CasStudio.tv

Video
ID : 1
Format : AVC
Format/Info : Advanced Video Codec
Format profile : [email protected]
Format settings, CABAC : Yes
Format settings, ReFrames : 11 frames
Codec ID : V_MPEG4/ISO/AVC
Duration : 56mn 12s
Bit rate : 1 131 Kbps
Width : 1 024 pixels
Height : 576 pixels
Display aspect ratio : 16:9
Frame rate mode : Constant
Frame rate : 23.976 fps
Color space : YUV
Chroma subsampling : 4:2:0
Bit depth : 8 bits
Scan type : Progressive
Bits/(Pixel*Frame) : 0.080
Stream size : 445 MiB (84%)
Writing library : core 142 r2389 956c8d8
Encoding settings : cabac=1 / ref=12 / deblock=1:-3:-3 / analyse=0x3:0x133 / me=umh / subme=11 / psy=1 / psy_rd=1,10:0,15 / mixed_ref=1 / me_range=32 / chroma_me=1 / trellis=2 / 8x8dct=1 / cqm=0 / deadzone=21,11 / fast_pskip=0 / chroma_qp_offset=-3 / threads=6 / lookahead_threads=1 / sliced_threads=0 / nr=0 / decimate=1 / interlaced=0 / bluray_compat=0 / constrained_intra=0 / bframes=12 / b_pyramid=1 / b_adapt=2 / b_bias=0 / direct=3 / weightb=1 / open_gop=0 / weightp=2 / keyint=240 / keyint_min=24 / scenecut=40 / intra_refresh=0 / rc=2pass / mbtree=0 / bitrate=1131 / ratetol=1,0 / qcomp=1,00 / qpmin=0 / qpmax=69 / qpstep=4 / cplxblur=20,0 / qblur=0,5 / ip_ratio=1,40 / pb_ratio=1,30 / aq=2:0,60
Language : English
Default : Yes
Forced : No
Color primaries : BT.709
Transfer characteristics : BT.709
Matrix coefficients : BT.709

Audio
ID : 2
Format : AC-3
Format/Info : Audio Coding 3
Mode extension : CM (complete main)
Format settings, Endianness : Big
Codec ID : A_AC3
Duration : 56mn 12s
Bit rate mode : Constant
Bit rate : 192 Kbps
Channel(s) : 2 channels
Channel positions : Front: L R
Sampling rate : 48.0 KHz
Bit depth : 16 bits
Compression mode : Lossy
Stream size : 77.2 MiB (14%)
Language : Ukrainian
Default : Yes
Forced : No

General
Unique ID : 79701286673227764445450366578312197788 (0x3BF5E8D26FE900E2EBAF39ABD855B69C)
Complete name : /mnt/disk_d/Video/Game of Thrones (Season 5) (2015) AVC [UKR] [UAGet]/Game.of.Thrones.S05E03.AVC.Ukr.uateam.tv.UAGet.mkv
Format : Matroska
Format version : Version 2
File size : 574 MiB
Duration : 1h 0mn
Overall bit rate : 1 326 Kbps
Writing application : HandBrake rev0
Writing library : libmkv 0.6.5
TITLE : Game of Thrones 05x03 (High Sparrow) - release by messafan

Video
ID : 1
Format : AVC
Format/Info : Advanced Video Codec
Format profile : [email protected]
Format settings, CABAC : Yes
Format settings, ReFrames : 11 frames
Codec ID : V_MPEG4/ISO/AVC
Duration : 1h 0mn
Bit rate : 1 131 Kbps
Width : 1 024 pixels
Height : 576 pixels
Display aspect ratio : 16:9
Frame rate mode : Constant
Frame rate : 23.976 fps
Color space : YUV
Chroma subsampling : 4:2:0
Bit depth : 8 bits
Scan type : Progressive
Bits/(Pixel*Frame) : 0.080
Stream size : 479 MiB (84%)
Writing library : core 142 r2389 956c8d8
Encoding settings : cabac=1 / ref=12 / deblock=1:-3:-3 / analyse=0x3:0x133 / me=umh / subme=11 / psy=1 / psy_rd=1,10:0,15 / mixed_ref=1 / me_range=32 / chroma_me=1 / trellis=2 / 8x8dct=1 / cqm=0 / deadzone=21,11 / fast_pskip=0 / chroma_qp_offset=-3 / threads=6 / lookahead_threads=1 / sliced_threads=0 / nr=0 / decimate=1 / interlaced=0 / bluray_compat=0 / constrained_intra=0 / bframes=12 / b_pyramid=1 / b_adapt=2 / b_bias=0 / direct=3 / weightb=1 / open_gop=0 / weightp=2 / keyint=240 / keyint_min=24 / scenecut=40 / intra_refresh=0 / rc=2pass / mbtree=0 / bitrate=1131 / ratetol=1,0 / qcomp=1,00 / qpmin=0 / qpmax=69 / qpstep=4 / cplxblur=20,0 / qblur=0,5 / ip_ratio=1,40 / pb_ratio=1,30 / aq=2:0,60
Language : English
Default : Yes
Forced : No
Color primaries : BT.709
Transfer characteristics : BT.709
Matrix coefficients : BT.709

Audio
ID : 2
Format : AC-3
Format/Info : Audio Coding 3
Mode extension : CM (complete main)
Format settings, Endianness : Big
Codec ID : A_AC3
Duration : 1h 0mn
Bit rate mode : Constant
Bit rate : 192 Kbps
Channel(s) : 2 channels
Channel positions : Front: L R
Sampling rate : 48.0 KHz
Bit depth : 16 bits
Compression mode : Lossy
Stream size : 83.1 MiB (14%)
Language : Ukrainian
Default : Yes
Forced : No

General
Unique ID : 287723266322387788633766901214096454757 (0xD8757C453006A6377B4EF94C29CCF465)
Complete name : /mnt/disk_d/Video/Game of Thrones (Season 5) (2015) AVC [UKR] [UAGet]/Game.of.Thrones.S05E04.AVC.Ukr.uateam.tv.UAGet.mkv
Format : Matroska
Format version : Version 2
File size : 484 MiB
Duration : 51mn 3s
Overall bit rate : 1 326 Kbps
Writing application : HandBrake rev0
Writing library : libmkv 0.6.5
TITLE : Game of Thrones 05x04 (The Sons Of The Harpy) - release by messafan for CasStudio.TV

Video
ID : 1
Format : AVC
Format/Info : Advanced Video Codec
Format profile : [email protected]
Format settings, CABAC : Yes
Format settings, ReFrames : 11 frames
Codec ID : V_MPEG4/ISO/AVC
Duration : 51mn 3s
Bit rate : 1 131 Kbps
Width : 1 024 pixels
Height : 576 pixels
Display aspect ratio : 16:9
Frame rate mode : Constant
Frame rate : 23.976 fps
Color space : YUV
Chroma subsampling : 4:2:0
Bit depth : 8 bits
Scan type : Progressive
Bits/(Pixel*Frame) : 0.080
Stream size : 404 MiB (84%)
Writing library : core 142 r2389 956c8d8
Encoding settings : cabac=1 / ref=12 / deblock=1:-3:-3 / analyse=0x3:0x133 / me=umh / subme=11 / psy=1 / psy_rd=1,10:0,15 / mixed_ref=1 / me_range=32 / chroma_me=1 / trellis=2 / 8x8dct=1 / cqm=0 / deadzone=21,11 / fast_pskip=0 / chroma_qp_offset=-3 / threads=6 / lookahead_threads=1 / sliced_threads=0 / nr=0 / decimate=1 / interlaced=0 / bluray_compat=0 / constrained_intra=0 / bframes=12 / b_pyramid=1 / b_adapt=2 / b_bias=0 / direct=3 / weightb=1 / open_gop=0 / weightp=2 / keyint=240 / keyint_min=24 / scenecut=40 / intra_refresh=0 / rc=2pass / mbtree=0 / bitrate=1131 / ratetol=1,0 / qcomp=1,00 / qpmin=0 / qpmax=69 / qpstep=4 / cplxblur=20,0 / qblur=0,5 / ip_ratio=1,40 / pb_ratio=1,30 / aq=2:0,60
Language : English
Default : Yes
Forced : No
Color primaries : BT.709
Transfer characteristics : BT.709
Matrix coefficients : BT.709

Audio
ID : 2
Format : AC-3
Format/Info : Audio Coding 3
Mode extension : CM (complete main)
Format settings, Endianness : Big
Codec ID : A_AC3
Duration : 51mn 3s
Bit rate mode : Constant
Bit rate : 192 Kbps
Channel(s) : 2 channels
Channel positions : Front: L R
Sampling rate : 48.0 KHz
Bit depth : 16 bits
Compression mode : Lossy
Stream size : 70.1 MiB (14%)
Language : Ukrainian
Default : Yes
Forced : No

General
Unique ID : 255486881882163207340266741918064963216 (0xC034FBCE9E56CA3C110D282CE027EE90)
Complete name : /mnt/disk_d/Video/Game of Thrones (Season 5) (2015) AVC [UKR] [UAGet]/Game.of.Thrones.S05E05.AVC.Ukr.uateam.tv.UAGet.mkv
Format : Matroska
Format version : Version 2
File size : 544 MiB
Duration : 57mn 20s
Overall bit rate : 1 326 Kbps
Writing application : HandBrake rev0
Writing library : libmkv 0.6.5
TITLE : Game of Thrones 05x05 (Kill the Boy) - release by messafan for CasStudio.TV

Video
ID : 1
Format : AVC
Format/Info : Advanced Video Codec
Format profile : [email protected]
Format settings, CABAC : Yes
Format settings, ReFrames : 11 frames
Codec ID : V_MPEG4/ISO/AVC
Duration : 57mn 20s
Bit rate : 1 131 Kbps
Width : 1 024 pixels
Height : 576 pixels
Display aspect ratio : 16:9
Frame rate mode : Constant
Frame rate : 23.976 fps
Color space : YUV
Chroma subsampling : 4:2:0
Bit depth : 8 bits
Scan type : Progressive
Bits/(Pixel*Frame) : 0.080
Stream size : 454 MiB (84%)
Writing library : core 142 r2389 956c8d8
Encoding settings : cabac=1 / ref=12 / deblock=1:-3:-3 / analyse=0x3:0x133 / me=umh / subme=11 / psy=1 / psy_rd=1,10:0,15 / mixed_ref=1 / me_range=32 / chroma_me=1 / trellis=2 / 8x8dct=1 / cqm=0 / deadzone=21,11 / fast_pskip=0 / chroma_qp_offset=-3 / threads=6 / lookahead_threads=1 / sliced_threads=0 / nr=0 / decimate=1 / interlaced=0 / bluray_compat=0 / constrained_intra=0 / bframes=12 / b_pyramid=1 / b_adapt=2 / b_bias=0 / direct=3 / weightb=1 / open_gop=0 / weightp=2 / keyint=240 / keyint_min=24 / scenecut=40 / intra_refresh=0 / rc=2pass / mbtree=0 / bitrate=1131 / ratetol=1,0 / qcomp=1,00 / qpmin=0 / qpmax=69 / qpstep=4 / cplxblur=20,0 / qblur=0,5 / ip_ratio=1,40 / pb_ratio=1,30 / aq=2:0,60
Language : English
Default : Yes
Forced : No
Color primaries : BT.709
Transfer characteristics : BT.709
Matrix coefficients : BT.709

Audio
ID : 2
Format : AC-3
Format/Info : Audio Coding 3
Mode extension : CM (complete main)
Format settings, Endianness : Big
Codec ID : A_AC3
Duration : 57mn 20s
Bit rate mode : Constant
Bit rate : 192 Kbps
Channel(s) : 2 channels
Channel positions : Front: L R
Sampling rate : 48.0 KHz
Bit depth : 16 bits
Compression mode : Lossy
Stream size : 78.8 MiB (14%)
Language : Ukrainian
Default : Yes
Forced : No

General
Unique ID : 339928552615183943690805125877908227179 (0xFFBBDB9B9FABF3BD79A7258A0A19C46B)
Complete name : /mnt/disk_d/Video/Game of Thrones (Season 5) (2015) AVC [UKR] [UAGet]/Game.of.Thrones.S05E06.AVC.Ukr.uateam.tv.UAGet.mkv
Format : Matroska
Format version : Version 2
File size : 515 MiB
Duration : 54mn 20s
Overall bit rate : 1 326 Kbps
Writing application : HandBrake rev0
Writing library : libmkv 0.6.5
TITLE : Game of Thrones 05x06 (Unbowed, Unbent, Unbroken) - release by messafan for CasS

Video
ID : 1
Format : AVC
Format/Info : Advanced Video Codec
Format profile : [email protected]
Format settings, CABAC : Yes
Format settings, ReFrames : 11 frames
Codec ID : V_MPEG4/ISO/AVC
Duration : 54mn 20s
Bit rate : 1 131 Kbps
Width : 1 024 pixels
Height : 576 pixels
Display aspect ratio : 16:9
Frame rate mode : Constant
Frame rate : 23.976 fps
Color space : YUV
Chroma subsampling : 4:2:0
Bit depth : 8 bits
Scan type : Progressive
Bits/(Pixel*Frame) : 0.080
Stream size : 430 MiB (84%)
Writing library : core 142 r2389 956c8d8
Encoding settings : cabac=1 / ref=12 / deblock=1:-3:-3 / analyse=0x3:0x133 / me=umh / subme=11 / psy=1 / psy_rd=1,10:0,15 / mixed_ref=1 / me_range=32 / chroma_me=1 / trellis=2 / 8x8dct=1 / cqm=0 / deadzone=21,11 / fast_pskip=0 / chroma_qp_offset=-3 / threads=6 / lookahead_threads=1 / sliced_threads=0 / nr=0 / decimate=1 / interlaced=0 / bluray_compat=0 / constrained_intra=0 / bframes=12 / b_pyramid=1 / b_adapt=2 / b_bias=0 / direct=3 / weightb=1 / open_gop=0 / weightp=2 / keyint=240 / keyint_min=24 / scenecut=40 / intra_refresh=0 / rc=2pass / mbtree=0 / bitrate=1131 / ratetol=1,0 / qcomp=1,00 / qpmin=0 / qpmax=69 / qpstep=4 / cplxblur=20,0 / qblur=0,5 / ip_ratio=1,40 / pb_ratio=1,30 / aq=2:0,60
Language : English
Default : Yes
Forced : No
Color primaries : BT.709
Transfer characteristics : BT.709
Matrix coefficients : BT.709

Audio
ID : 2
Format : AC-3
Format/Info : Audio Coding 3
Mode extension : CM (complete main)
Format settings, Endianness : Big
Codec ID : A_AC3
Duration : 54mn 20s
Bit rate mode : Constant
Bit rate : 192 Kbps
Channel(s) : 2 channels
Channel positions : Front: L R
Sampling rate : 48.0 KHz
Bit depth : 16 bits
Compression mode : Lossy
Stream size : 74.6 MiB (14%)
Language : Ukrainian
Default : Yes
Forced : No

General
Unique ID : 244147251580563535804079425860492702323 (0xB7AD0CDE399CB320CB418165A215B273)
Complete name : /mnt/disk_d/Video/Game of Thrones (Season 5) (2015) AVC [UKR] [UAGet]/Game.of.Thrones.S05E07.AVC.Ukr.uateam.tv.UAGet.mkv
Format : Matroska
Format version : Version 2
File size : 564 MiB
Duration : 59mn 24s
Overall bit rate : 1 326 Kbps
Writing application : HandBrake rev0
Writing library : libmkv 0.6.5
TITLE : Game of Thrones 05x07 (The Gift) - release by messafan for CasStudio.TV

Video
ID : 1
Format : AVC
Format/Info : Advanced Video Codec
Format profile : [email protected]
Format settings, CABAC : Yes
Format settings, ReFrames : 11 frames
Codec ID : V_MPEG4/ISO/AVC
Duration : 59mn 24s
Bit rate : 1 131 Kbps
Width : 1 024 pixels
Height : 576 pixels
Display aspect ratio : 16:9
Frame rate mode : Constant
Frame rate : 23.976 fps
Color space : YUV
Chroma subsampling : 4:2:0
Bit depth : 8 bits
Scan type : Progressive
Bits/(Pixel*Frame) : 0.080
Stream size : 471 MiB (84%)
Writing library : core 142 r2389 956c8d8
Encoding settings : cabac=1 / ref=12 / deblock=1:-3:-3 / analyse=0x3:0x133 / me=umh / subme=11 / psy=1 / psy_rd=1,10:0,15 / mixed_ref=1 / me_range=32 / chroma_me=1 / trellis=2 / 8x8dct=1 / cqm=0 / deadzone=21,11 / fast_pskip=0 / chroma_qp_offset=-3 / threads=6 / lookahead_threads=1 / sliced_threads=0 / nr=0 / decimate=1 / interlaced=0 / bluray_compat=0 / constrained_intra=0 / bframes=12 / b_pyramid=1 / b_adapt=2 / b_bias=0 / direct=3 / weightb=1 / open_gop=0 / weightp=2 / keyint=240 / keyint_min=24 / scenecut=40 / intra_refresh=0 / rc=2pass / mbtree=0 / bitrate=1131 / ratetol=1,0 / qcomp=1,00 / qpmin=0 / qpmax=69 / qpstep=4 / cplxblur=20,0 / qblur=0,5 / ip_ratio=1,40 / pb_ratio=1,30 / aq=2:0,60
Language : English
Default : Yes
Forced : No
Color primaries : BT.709
Transfer characteristics : BT.709
Matrix coefficients : BT.709

Audio
ID : 2
Format : AC-3
Format/Info : Audio Coding 3
Mode extension : CM (complete main)
Format settings, Endianness : Big
Codec ID : A_AC3
Duration : 59mn 24s
Bit rate mode : Constant
Bit rate : 192 Kbps
Channel(s) : 2 channels
Channel positions : Front: L R
Sampling rate : 48.0 KHz
Bit depth : 16 bits
Compression mode : Lossy
Stream size : 81.6 MiB (14%)
Default : Yes
Forced : No

General
Unique ID : 278051859955422114235382662928101774950 (0xD12ED71F15CABB142918F93F44439666)
Complete name : /mnt/disk_d/Video/Game of Thrones (Season 5) (2015) AVC [UKR] [UAGet]/Game.of.Thrones.S05E08.AVC.Ukr.uateam.tv.UAGet.mkv
Format : Matroska
Format version : Version 2
File size : 575 MiB
Duration : 1h 0mn
Overall bit rate : 1 326 Kbps
Writing application : HandBrake rev0
Writing library : libmkv 0.6.5
TITLE : Game of Thrones 05x08 (Hardhome) - release by messafan for CasStudio.TV

Video
ID : 1
Format : AVC
Format/Info : Advanced Video Codec
Format profile : [email protected]
Format settings, CABAC : Yes
Format settings, ReFrames : 11 frames
Codec ID : V_MPEG4/ISO/AVC
Duration : 1h 0mn
Bit rate : 1 131 Kbps
Width : 1 024 pixels
Height : 576 pixels
Display aspect ratio : 16:9
Frame rate mode : Constant
Frame rate : 23.976 fps
Color space : YUV
Chroma subsampling : 4:2:0
Bit depth : 8 bits
Scan type : Progressive
Bits/(Pixel*Frame) : 0.080
Stream size : 480 MiB (84%)
Writing library : core 142 r2389 956c8d8
Encoding settings : cabac=1 / ref=12 / deblock=1:-3:-3 / analyse=0x3:0x133 / me=umh / subme=11 / psy=1 / psy_rd=1,10:0,15 / mixed_ref=1 / me_range=32 / chroma_me=1 / trellis=2 / 8x8dct=1 / cqm=0 / deadzone=21,11 / fast_pskip=0 / chroma_qp_offset=-3 / threads=6 / lookahead_threads=1 / sliced_threads=0 / nr=0 / decimate=1 / interlaced=0 / bluray_compat=0 / constrained_intra=0 / bframes=12 / b_pyramid=1 / b_adapt=2 / b_bias=0 / direct=3 / weightb=1 / open_gop=0 / weightp=2 / keyint=240 / keyint_min=24 / scenecut=40 / intra_refresh=0 / rc=2pass / mbtree=0 / bitrate=1131 / ratetol=1,0 / qcomp=1,00 / qpmin=0 / qpmax=69 / qpstep=4 / cplxblur=20,0 / qblur=0,5 / ip_ratio=1,40 / pb_ratio=1,30 / aq=2:0,60
Language : English
Default : Yes
Forced : No
Color primaries : BT.709
Transfer characteristics : BT.709
Matrix coefficients : BT.709

Audio
ID : 2
Format : AC-3
Format/Info : Audio Coding 3
Mode extension : CM (complete main)
Format settings, Endianness : Big
Codec ID : A_AC3
Duration : 1h 0mn
Bit rate mode : Constant
Bit rate : 192 Kbps
Channel(s) : 2 channels
Channel positions : Front: L R
Sampling rate : 48.0 KHz
Bit depth : 16 bits
Compression mode : Lossy
Stream size : 83.2 MiB (14%)
Language : Ukrainian
Default : Yes
Forced : No

General
Unique ID : 126277306797919775592399687022294258748 (0x5F001FE8CAA9E2BB32749F1075CED43C)
Complete name : /mnt/disk_d/Video/Game of Thrones (Season 5) (2015) AVC [UKR] [UAGet]/Game.of.Thrones.S05E09.AVC.Ukr.uateam.tv.UAGet.mkv
Format : Matroska
Format version : Version 2
File size : 503 MiB
Duration : 53mn 1s
Overall bit rate : 1 326 Kbps
Writing application : HandBrake rev0
Writing library : libmkv 0.6.5
TITLE : Game of Thrones 05x09 (The Dance Of Dragons) - release by messafan for CasStudio.TV

Video
ID : 1
Format : AVC
Format/Info : Advanced Video Codec
Format profile : [email protected]
Format settings, CABAC : Yes
Format settings, ReFrames : 11 frames
Codec ID : V_MPEG4/ISO/AVC
Duration : 53mn 1s
Bit rate : 1 131 Kbps
Width : 1 024 pixels
Height : 576 pixels
Display aspect ratio : 16:9
Frame rate mode : Constant
Frame rate : 23.976 fps
Color space : YUV
Chroma subsampling : 4:2:0
Bit depth : 8 bits
Scan type : Progressive
Bits/(Pixel*Frame) : 0.080
Stream size : 420 MiB (84%)
Writing library : core 142 r2389 956c8d8
Encoding settings : cabac=1 / ref=12 / deblock=1:-3:-3 / analyse=0x3:0x133 / me=umh / subme=11 / psy=1 / psy_rd=1,10:0,15 / mixed_ref=1 / me_range=32 / chroma_me=1 / trellis=2 / 8x8dct=1 / cqm=0 / deadzone=21,11 / fast_pskip=0 / chroma_qp_offset=-3 / threads=6 / lookahead_threads=1 / sliced_threads=0 / nr=0 / decimate=1 / interlaced=0 / bluray_compat=0 / constrained_intra=0 / bframes=12 / b_pyramid=1 / b_adapt=2 / b_bias=0 / direct=3 / weightb=1 / open_gop=0 / weightp=2 / keyint=240 / keyint_min=24 / scenecut=40 / intra_refresh=0 / rc=2pass / mbtree=0 / bitrate=1131 / ratetol=1,0 / qcomp=1,00 / qpmin=0 / qpmax=69 / qpstep=4 / cplxblur=20,0 / qblur=0,5 / ip_ratio=1,40 / pb_ratio=1,30 / aq=2:0,60
Language : English
Default : Yes
Forced : No
Color primaries : BT.709
Transfer characteristics : BT.709
Matrix coefficients : BT.709

Audio
ID : 2
Format : AC-3
Format/Info : Audio Coding 3
Mode extension : CM (complete main)
Format settings, Endianness : Big
Codec ID : A_AC3
Duration : 53mn 1s
Bit rate mode : Constant
Bit rate : 192 Kbps
Channel(s) : 2 channels
Channel positions : Front: L R
Sampling rate : 48.0 KHz
Bit depth : 16 bits
Compression mode : Lossy
Stream size : 72.8 MiB (14%)
Language : Ukrainian
Default : Yes
Forced : No

General
Unique ID : 109684874565185130245346049695458914694 (0x528489D70447D750F3E9DB337569F186)
Complete name : /mnt/disk_d/Video/Game of Thrones (Season 5) (2015) AVC [UKR] [UAGet]/Game.of.Thrones.S05E10.AVC.Ukr.uateam.tv.UAGet.mkv
Format : Matroska
Format version : Version 2
File size : 574 MiB
Duration : 1h 0mn
Overall bit rate : 1 330 Kbps
Writing application : HandBrake rev0
Writing library : libmkv 0.6.5

Video
ID : 1
Format : AVC
Format/Info : Advanced Video Codec
Format profile : [email protected]
Format settings, CABAC : Yes
Format settings, ReFrames : 11 frames
Codec ID : V_MPEG4/ISO/AVC
Duration : 1h 0mn
Bit rate : 1 131 Kbps
Width : 1 024 pixels
Height : 576 pixels
Display aspect ratio : 16:9
Frame rate mode : Constant
Frame rate : 23.976 fps
Color space : YUV
Chroma subsampling : 4:2:0
Bit depth : 8 bits
Scan type : Progressive
Bits/(Pixel*Frame) : 0.080
Stream size : 479 MiB (84%)
Writing library : core 142 r2389 956c8d8
Encoding settings : cabac=1 / ref=12 / deblock=1:-3:-3 / analyse=0x3:0x133 / me=umh / subme=11 / psy=1 / psy_rd=1,10:0,15 / mixed_ref=1 / me_range=32 / chroma_me=1 / trellis=2 / 8x8dct=1 / cqm=0 / deadzone=21,11 / fast_pskip=0 / chroma_qp_offset=-3 / threads=6 / lookahead_threads=1 / sliced_threads=0 / nr=0 / decimate=1 / interlaced=0 / bluray_compat=0 / constrained_intra=0 / bframes=12 / b_pyramid=1 / b_adapt=2 / b_bias=0 / direct=3 / weightb=1 / open_gop=0 / weightp=2 / keyint=240 / keyint_min=24 / scenecut=40 / intra_refresh=0 / rc=2pass / mbtree=0 / bitrate=1131 / ratetol=1,0 / qcomp=1,00 / qpmin=0 / qpmax=69 / qpstep=4 / cplxblur=20,0 / qblur=0,5 / ip_ratio=1,40 / pb_ratio=1,30 / aq=2:0,60
Language : English
Default : Yes
Forced : No
Color primaries : BT.709
Transfer characteristics : BT.709
Matrix coefficients : BT.709

Audio
ID : 2
Format : AC-3
Format/Info : Audio Coding 3
Mode extension : CM (complete main)
Format settings, Endianness : Big
Codec ID : A_AC3
Duration : 1h 0mn
Bit rate mode : Constant
Bit rate : 192 Kbps
Channel(s) : 2 channels
Channel positions : Front: L R
Sampling rate : 48.0 KHz
Bit depth : 16 bits
Compression mode : Lossy
Stream size : 82.8 MiB (14%)
Language : Ukrainian
Default : Yes
Forced : No
Скріншоти






Реліз від:
Особиста оцінка: 10 - без зайвих вагань рекомендую всім!


Золотий реліз (завантажене не впливає на рейтинг)
 Трекер:    Зареєстрований   

Завантажити / скачати серіал українською



відео для новачків



 Зареєстрований:   2015-06-16 15:19
 Розмір:   5.23 GB 
 Оцінка серіалу:   9.7/10 (Голосів: 74)
   
77NewMan77 
Свій


З нами з: 25.08.10
Востаннє: 04.12.16
Повідомлень: 71

2015-04-28 16:46  
А є якісь розбіжності із серіями які буди злиті раніше?
Drool 
VIP


З нами з: 17.04.10
Востаннє: 09.12.16
Повідомлень: 1270

2015-04-28 17:32  
77NewMan77 написано:
А є якісь розбіжності із серіями які буди злиті раніше?

Звісно ні. Я сам кодую, сам синхронизую доріжку, сам роздаю.

Tarasyk 
Відео Гуртом - фільмокрай
Відео Гуртом - фільмокрай


З нами з: 26.08.09
Востаннє: 28.11.16
Повідомлень: 5972

2015-04-28 17:46  
Drool, ні, 77NewMan77 питав про сюжетні відмінності в серіях, що показують на ТБ від тих, які злили в інтернет ще перед прем’єрою.
Drool 
VIP


З нами з: 17.04.10
Востаннє: 09.12.16
Повідомлень: 1270

2015-04-28 17:51  
Tarasyk написано:
сюжетні відмінності в серіях, що показують на ТБ від тих, які злили в інтернет ще перед прем’єрою
А, не допер. Ні, відмінностей немає, оскільки звукова доріжка від UATeam, які озвучили стирені серії, підходить, за винятком розбіжностей на початку, там різниця лише в логотипах відеокомпаній.
77NewMan77 
Свій


З нами з: 25.08.10
Востаннє: 04.12.16
Повідомлень: 71

2015-04-28 18:01  
Drool Дякую. А то якось закралась думка, що HBO спробує згладити втрати від зливу шляхом додавання чогось нового у серії.
istoruk 
Свій


З нами з: 12.04.09
Востаннє: 07.12.16
Повідомлень: 139

2015-05-13 20:41  
Підскажіть,що за музика грає наприкінці 4-ї серії,під час битви Безсмертних і Селмі супроти Синів Гарпії?
don pedro 
Попереджень: 1
Попереджень: 1 


З нами з: 29.06.11
Востаннє: 09.12.16
Повідомлень: 8769

2015-05-13 22:20  
istoruk

https://www.youtube.com/watch?v=503cPhc5GO4

Надалі просто забиваєте назву серіалу, номер сезону і епізоду, пишете OST і знаходити всю необхідну вам музику.

istoruk 
Свій


З нами з: 12.04.09
Востаннє: 07.12.16
Повідомлень: 139

2015-05-18 17:31  
don pedro

Спасибі,але не зовсім те,що шукаю

60048007 
Частий відвідувач


З нами з: 10.05.10
Востаннє: 09.12.16
Повідомлень: 33

2015-05-22 09:26  
77NewMan77 написано:
А то якось закралась думка, що HBO спробує згладити втрати від зливу шляхом додавання чогось нового у серії.

Серіал на ТБ покажуть тільки, якщо всі серії серіалу будуть зняті і обробленні. Тобто вже нічого не поміняють.

volodymyr_sav 
VIP


З нами з: 07.10.13
Востаннє: 05.12.16
Повідомлень: 794

2015-05-22 14:57  
Підкажіть, то правда, що кожна нова серія 5-го сезону на Гуртом буде зявлятись щовівторка?
Estranded 
VIP


З нами з: 09.02.14
Востаннє: 09.12.16
Повідомлень: 836

2015-05-25 18:03  
volodymyr_sav
Так!

Drool 
VIP


З нами з: 17.04.10
Востаннє: 09.12.16
Повідомлень: 1270

2015-05-26 17:24  
volodymyr_sav написано:
Підкажіть, то правда, що кожна нова серія 5-го сезону на Гуртом буде зявлятись щовівторка?
Моя роздача залежить від джерела 1080p з вагою кожної серії понад 5 гектарів. Так що в мене свій графік Wink (1)
Nikson 
VIP


З нами з: 12.01.10
Востаннє: 09.12.16
Повідомлень: 658

2015-06-10 07:43  
Drool
А перші 4 сезони в такій якості маєте?

Drool 
VIP


З нами з: 17.04.10
Востаннє: 09.12.16
Повідомлень: 1270

2015-06-10 08:09  
Nikson написано:
А перші 4 сезони в такій якості маєте?
Ні. Цей сезон мені довелось кодувати через те, що всі інші роздачі на толоці цього сезону є приватними.
Bod_zik99 
VIP


З нами з: 28.12.13
Востаннє: 09.12.16
Повідомлень: 827

2015-06-10 21:56  
Чувак, який грає Давоса, у своєму "Твіттері" написав шо фінальна серія буде ше приголомшливішою за "Red Wedding".
Drool 
VIP


З нами з: 17.04.10
Востаннє: 09.12.16
Повідомлень: 1270

2015-06-16 15:39  
Фінал сезону!
Anubys 
VIP


З нами з: 09.11.09
Востаннє: 09.12.16
Повідомлень: 278

2015-06-16 16:39  
Класний серіал!
v.zavgorodniev 
Новенький


З нами з: 02.10.11
Востаннє: 28.06.16
Повідомлень: 7

2015-06-16 21:33  
Чудовий серіал.
Жалію що він так швидко промайнув, а до нового сезону ще 10 місяців :(

ua-maks 
Свій


З нами з: 01.04.12
Востаннє: 28.11.16
Повідомлень: 51

2015-06-16 23:47  
v.zavgorodniev
Я теж спочатку засмутився, та потім побачив, що вже в цю неділю стартує другий сезон Справжнього детективу. Так що буде чим себе зайняті Wide grin

don pedro 
Попереджень: 1
Попереджень: 1 


З нами з: 29.06.11
Востаннє: 09.12.16
Повідомлень: 8769

2015-10-30 01:20  
На жаль, прем'єру нового сезону "Гри престолів" мабуть перенесуть з кінця березня на, як мінімум, середину квітня наступного року. Це відбудеться через перезавантаженість НВО іншими прем'єрами. Зокрема через показ 14 лютого 2016 р. одразу двох серій нового серіалу "Вініл", причому, режисером першої серії буде САМ Мартін Скорсезе. Почекаємо Sad (1)
don pedro 
Попереджень: 1
Попереджень: 1 


З нами з: 29.06.11
Востаннє: 09.12.16
Повідомлень: 8769

2015-12-12 02:58  
Персонажі "Гри престолів" в образах 80-90-х років. Десь краще вийшло, десь гірше:
http://www.buzzfeed.com/robinedds/game-of-thrones-characters-transported-back-to-the-80s-an?sub=3288176_3031388#.gga6Mk9b1
Уважно придивляйтесь до подробиць на картинах!

petrosan03-17 
Частий відвідувач


З нами з: 15.01.12
Востаннє: 07.12.16
Повідомлень: 40

2016-07-04 08:58  
треба переглянути знову, дякую за гарну озвучку
Ваш часовий пояс: GMT + 2 Години

Нова тема   Відповісти