Завантажити та скачати торренти українською


Легенди осені / Legends of the Fall (1994) 720p Ukr/Eng | Sub Eng

Нові коментарі

Нова тема   Відповісти
Автор Повідомлення
Anonymous 







2015-04-10 18:40  
Легенди осені / Legends of the Fall (1994) 720p Ukr/Eng | Sub Eng



Оригінальні постери




повнорозмірні скріншоти відкриваються по кліку (з натиснутим CTRL чи кліком середньою кнопкою мишки - у іншій вкладці)



Жанр: драма, романтичний, вестерн, військовий
Країна: США

Оскар за кращу роботу оператора

Кінокомпанія: TriStar Pictures, Bedford Falls Productions, Pangaea
Режисер: Едвард Цвік / Edward Zwick
Актори: Бред Піт / Brad Pitt, Ентоні Гопкінс / Anthony Hopkins, Ейдан Квін / Aidan Quinn, Джулія Ормонд / Julia Ormond, Генрі Томас / Henry Thomas, Танту Кардинал / Tantoo Cardinal, Ґордон Тутузіс / Gordon Tootoosis та інші

Сюжет:
Історія родини Ладлоу - стрімка і романтична розповідь про трьох братів, їхнього батька та молоду і чарівну жінку, яка неймовірним чином змінює життя кожного з них. З дитинства троє братів нерозлучні, однак вони ще не підозрюють, по якій стежці пристрастей і насильства поведе життя кожного з них. Крізь жахи Першої Світової, крізь втрачені роки, що послідували за війною, через кохання і втрати, зраду і надію. І в центрі завжди опинявся недосяжний, непередбачуваний Трістан...
Фільм знятий за мотивами роману Джима Гаррісона «Легенди осені» (Legends of the Fall, 1979).


Рейтинг MPAA: R - особам до 17 років обов'язкова присутність батьків або дорослого опікуна
Вікова категорія: 16+

Тривалість: 02:12:49
Якість: 720p [EbP]
Відео:
кодек:
розмір кадру: 1280 х 694
бітрейт: 6700 кбіт/с

Аудіо # 1:
мова: українська
переклад: багатоголосий закадровий
ролі озвучили: Бред Піт — Володимир Терещук, Ентоні Гопкінс — Олег Стальчук, Анатолій Пашнін і два жіночих голоси
кодек: 2.0
бітрейт: 192 кбіт/с

Аудіо # 2:
мова: англійська
переклад: оригінал
кодек: 5.1
бітрейт: 640 кбіт/с

Аудіо # 3:
мова: англійська
переклад: коментарі
кодек: 2.0
бітрейт: 192 кбіт/с

Субтитри:
мова: англійська
тип: програмні (м'які)
формат: *.srt

Збережено оригінальні розділи, як на Blu-ray.
MediaInfo
Код:
General
Unique ID                   : 249498714879640964874386067210306731490 (0xBBB3B46124969D2482B6B71677AA3DE2)
Complete name               : Legends of the Fall (1994) [Ukr,Eng sub.Eng] 720p [Hurtom & HDClub].mkv
Format                      : Matroska
Format version              : Version 4 / Version 2
File size                   : 7.17 GiB
Duration                    : 2h 12mn
Overall bit rate            : 7 727 Kbps
Movie name                  : Легенди осені / Legends of the Fall (1994) [Ukr,Eng sub.Eng] 720p [Hurtom & HDClub]
Encoded date                : UTC 2015-04-10 20:34:09
Writing application         : mkvmerge v7.8.0 ('River Man') 64bit built on Mar 27 2015 16:31:37
Writing library             : libebml v1.3.1 + libmatroska v1.4.2
Attachements                : cover.jpg
DURATION                    : 02:12:49.952000000
NUMBER_OF_FRAMES            : 249061
NUMBER_OF_BYTES             : 191278848
_STATISTICS_WRITING_APP     : mkvmerge v7.8.0 ('River Man') 64bit built on Mar 27 2015 16:31:37
_STATISTICS_WRITING_DATE_UT : 2015-04-10 20:34:09
_STATISTICS_TAGS            : BPS DURATION NUMBER_OF_FRAMES NUMBER_OF_BYTES

Video
ID                          : 1
Format                      : AVC
Format/Info                 : Advanced Video Codec
Format profile              : [email protected]
Format settings, CABAC      : Yes
Format settings, ReFrames   : 9 frames
Codec ID                    : V_MPEG4/ISO/AVC
Duration                    : 2h 12mn
Bit rate                    : 6 700 Kbps
Width                       : 1 280 pixels
Height                      : 694 pixels
Display aspect ratio        : 1.85:1
Frame rate mode             : Constant
Frame rate                  : 23.976 fps
Color space                 : YUV
Chroma subsampling          : 4:2:0
Bit depth                   : 8 bits
Scan type                   : Progressive
Bits/(Pixel*Frame)          : 0.315
Stream size                 : 6.08 GiB (85%)
Title                       : Легенди осені / Legends of the Fall / Легенды осени (1994) 720p [EbP]
Writing library             : core 112 r1867 22bfd31
Encoding settings           : cabac=1 / ref=9 / deblock=1:-3:-3 / analyse=0x3:0x113 / me=umh / subme=10 / psy=1 / psy_rd=1.20:0.10 / mixed_ref=1 / me_range=16 / chroma_me=1 / trellis=2 / 8x8dct=1 / cqm=0 / deadzone=21,11 / fast_pskip=0 / chroma_qp_offset=-3 / threads=3 / sliced_threads=0 / nr=0 / decimate=0 / interlaced=0 / constrained_intra=0 / bframes=7 / b_pyramid=2 / b_adapt=2 / b_bias=0 / direct=3 / weightb=1 / open_gop=0 / weightp=2 / keyint=250 / keyint_min=23 / scenecut=40 / intra_refresh=0 / rc=2pass / mbtree=0 / bitrate=6700 / ratetol=1.0 / qcomp=0.70 / qpmin=0 / qpmax=51 / qpstep=4 / cplxblur=20.0 / qblur=0.5 / ip_ratio=1.40 / pb_ratio=1.20 / aq=1:0.75
Language                    : English
Default                     : Yes
Forced                      : No
DURATION                    : 02:12:49.962000000
NUMBER_OF_FRAMES            : 191088
NUMBER_OF_BYTES             : 6674707678
_STATISTICS_WRITING_APP     : mkvmerge v7.8.0 ('River Man') 64bit built on Mar 27 2015 16:31:37
_STATISTICS_WRITING_DATE_UT : 2015-04-10 20:34:09
_STATISTICS_TAGS            : BPS DURATION NUMBER_OF_FRAMES NUMBER_OF_BYTES

Audio #1
ID                          : 2
Format                      : AC-3
Format/Info                 : Audio Coding 3
Mode extension              : CM (complete main)
Format settings, Endianness : Big
Codec ID                    : A_AC3
Duration                    : 2h 12mn
Bit rate mode               : Constant
Bit rate                    : 192 Kbps
Channel(s)                  : 2 channels
Channel positions           : Front: L R
Sampling rate               : 48.0 KHz
Bit depth                   : 16 bits
Compression mode            : Lossy
Stream size                 : 182 MiB (2%)
Title                       : MVO [Inter] 2.0 192 kbps [Hurtom-DеLight]
Language                    : Ukrainian
Default                     : Yes
Forced                      : No

Audio #2
ID                          : 3
Format                      : AC-3
Format/Info                 : Audio Coding 3
Mode extension              : CM (complete main)
Format settings, Endianness : Big
Codec ID                    : A_AC3
Duration                    : 2h 12mn
Bit rate mode               : Constant
Bit rate                    : 640 Kbps
Channel(s)                  : 6 channels
Channel positions           : Front: L C R, Side: L R, LFE
Sampling rate               : 48.0 KHz
Bit depth                   : 16 bits
Compression mode            : Lossy
Stream size                 : 608 MiB (8%)
Title                       : Original 5.1 640 kbps
Language                    : English
Default                     : No
Forced                      : No

Audio #3
ID                          : 4
Format                      : AC-3
Format/Info                 : Audio Coding 3
Format profile              : Dolby Digital
Mode extension              : CM (complete main)
Format settings, Endianness : Big
Codec ID                    : A_AC3
Duration                    : 2h 12mn
Bit rate mode               : Constant
Bit rate                    : 192 Kbps
Channel(s)                  : 2 channels
Channel positions           : Front: L R
Sampling rate               : 48.0 KHz
Bit depth                   : 16 bits
Compression mode            : Lossy
Stream size                 : 182 MiB (2%)
Title                       : Commentary with Cinematographer John Toll and production designer Lilly Kilvert 2.0 192 kbps
Language                    : English
Default                     : No
Forced                      : No

Text
ID                          : 5
Format                      : UTF-8
Codec ID                    : S_TEXT/UTF8
Codec ID/Info               : UTF-8 Plain Text
Language                    : English
Default                     : No
Forced                      : No

Menu
00:00:00.000                : en:
00:08:01.772                : en:
00:15:00.941                : en:
00:25:26.233                : en:
00:34:06.044                : en:
00:39:51.931                : en:
00:50:03.458                : en:
00:56:47.779                : en:
01:05:58.245                : en:
01:12:04.028                : en:
01:22:04.336                : en:
01:30:28.381                : en:
01:37:19.667                : en:
01:41:59.363                : en:
01:53:30.512                : en:
02:00:28.429                : en:




Джерела та подяки: &
ріп відео, оригінальні звук та субтитри - EbP (HDbits), sergey_n (HDClub); українська доріжка - DеLight - зведення, MAKAPOHHIK, ratbol, dvorsky та Malamute - запис з ТБ; українізований постер - з релізу JACKUS; фільмографії акторів та інформація про озвучення - Віктор (всі - Гуртом).


ЗАЛИШАЙТЕСЬ ЯКОМОГА ДОВШЕ НА РОЗДАЧІ!

СКАЧАВ САМ - ДАЙ СКАЧАТИ ІНШИМ


Срібний реліз (на рейтинг впливає 50% завантаженого)
 Трекер:    Зареєстрований   

Завантажити / скачати фільм українською



відео для новачків



 Зареєстрований:   2015-04-10 23:39
 Розмір:   7.17 GB 
 Оцінка фільму:   4.7/10 (Голосів: 18)
   
Інші релізи
   Легенди осені / Legends of the Fall (1994) DеLight  6 / 0   1.46 GB   2015-04-10 18:25 
   Легенди осені / Legends Of The Fall (1994) Ukr/Eng | sub Eng JACKUS  8 / 2   2.6 GB   2011-05-15 02:20 
bot 
робот


З нами з: 30.09.07
Востаннє: 26.05.05
Повідомлень: 15966

2015-04-10 23:39  
Тему перенесено з Анонси релізів до форуму Фільми в HD


igor911

Ваш часовий пояс: GMT + 2 Години

Нова тема   Відповісти