Завантажити та скачати торренти українською


Джона Хекс / Jonah Hex (2010) 1080p Ukr/Eng | Sub Ukr/Eng

Нові коментарі

Нова тема   Відповісти
Автор Повідомлення
Anonymous 







2015-04-09 01:44  
Джона Хекс / Jonah Hex (2010) 1080p Ukr/Eng | Sub Ukr/Eng



Оригінальний постер


повнорозмірний скріншот відкривається по кліку (з натиснутим CTRL чи кліком середньою кнопкою мишки - у іншій вкладці)


Жанр: фентезі, бойовик, трилер, драма, вестерн
Країна: США



Кінокомпанія: Warner Bros., Legendary Pictures, Mad Chance, Weed Road Pictures, DC Entertainment
Режисер: Джиммі Хейярд / Jimmy Hayward
Актори: Джош Бролін / Josh Brolin, Джон Малкович / John Malkovich, Меґан Фокс / Megan Fox, Майкл Фассбендер / Michael Fassbender, Вілл Арнетт / Will Arnett, Джон Галлахер мол. / John Gallagher Jr., Том Вопат / Tom Wopat, Майкл Шеннон / Michael Shannon, Вес Бентлі / Wes Bentley, Джулія Джонс / Julia Jones, Джеффрі Дін Морґан / Jeffrey Dean Morgan та інші

Сюжет:
Парад героїв американських коміксів продовжується - настала черга Джони Гекса: брутального мисливця за головами, індіанського вихованця і солдата армії Конфедерації - з понівеченим несправедливим судом обличчям і загрубілим серцем він все одно живе за власним кодексом честі, мандруючи охопленим полум'ям громадянської війни півднем США.


Рейтинг MPAA: PG-13 - дітям до 13 років перегляд не бажаний
Вікова категорія: 16+

Тривалість: 01:21:28
Якість: 1080p
Відео:
кодек:
розмір кадру: 1920 х 802
бітрейт: 12706 кбіт/с [crf=16.5]

Аудіо # 1:
мова: українська
переклад: двоголосий закадровий
кодек: 2.0
бітрейт: 192 кбіт/с

Аудіо # 2:
мова: англійська
переклад: оригінал
кодек: 5.1
бітрейт: 1509 кбіт/с

Субтитри # 1:
мова: українська
тип: програмні (м'які)
формат: *.srt

Субтитри # 2:
мова: англійська
тип: програмні (м'які)
формат: *.srt

Збережено оригінальні розділи, як на Blu-ray.
MediaInfo та log
Код:
General
Unique ID                   : 184605138090852124126553677043106079026 (0x8AE1A8057C1B52699FDEFD486F586132)
Complete name               : Jonah Hex (2010) [Ukr,Eng sub.Ukr,Eng] 1080p [Hurtom & HDClub].mkv
Format                      : Matroska
Format version              : Version 4 / Version 2
File size                   : 8.20 GiB
Duration                    : 1h 21mn
Overall bit rate            : 14.4 Mbps
Movie name                  : Джона Хекс / Jonah Hex (2010) [Ukr,Eng sub.Ukr,Eng] 1080p [Hurtom & HDClub]
Encoded date                : UTC 2015-04-08 22:35:38
Writing application         : mkvmerge v7.8.0 ('River Man') 64bit built on Mar 27 2015 16:31:37
Writing library             : libebml v1.3.1 + libmatroska v1.4.2
Attachements                : cover.jpg / xlog.txt
DURATION                    : 01:11:58.395000000
NUMBER_OF_FRAMES            : 667
NUMBER_OF_BYTES             : 33616
_STATISTICS_WRITING_APP     : mkvmerge v7.8.0 ('River Man') 64bit built on Mar 27 2015 16:31:37
_STATISTICS_WRITING_DATE_UT : 2015-04-08 22:35:38
_STATISTICS_TAGS            : BPS DURATION NUMBER_OF_FRAMES NUMBER_OF_BYTES

Video
ID                          : 1
Format                      : AVC
Format/Info                 : Advanced Video Codec
Format profile              : [email protected]
Format settings, CABAC      : Yes
Format settings, ReFrames   : 5 frames
Codec ID                    : V_MPEG4/ISO/AVC
Duration                    : 1h 21mn
Bit rate                    : 12.4 Mbps
Width                       : 1 920 pixels
Height                      : 802 pixels
Display aspect ratio        : 2.40:1
Frame rate mode             : Constant
Frame rate                  : 23.976 fps
Color space                 : YUV
Chroma subsampling          : 4:2:0
Bit depth                   : 8 bits
Scan type                   : Progressive
Bits/(Pixel*Frame)          : 0.336
Stream size                 : 7.07 GiB (86%)
Title                       : Джона Хекс / Jonah Hex (2010) 1080p [HDClub-SbR]
Writing library             : core 146 r2538kMod 121396c
Encoding settings           : cabac=1 / ref=5 / deblock=1:-2:-2 / analyse=0x3:0x133 / me=umh / subme=11 / psy=1 / fade_compensate=0.00 / psy_rd=1.00:0.00 / mixed_ref=1 / me_range=32 / chroma_me=1 / trellis=2 / 8x8dct=1 / cqm=0 / deadzone=21,11 / fast_pskip=1 / chroma_qp_offset=-2 / threads=12 / lookahead_threads=2 / sliced_threads=0 / nr=0 / decimate=1 / interlaced=0 / bluray_compat=0 / constrained_intra=0 / fgo=0 / bframes=8 / b_pyramid=2 / b_adapt=2 / b_bias=0 / direct=1 / weightb=1 / open_gop=0 / weightp=2 / keyint=250 / keyint_min=23 / scenecut=40 / intra_refresh=0 / rc_lookahead=60 / rc=crf / mbtree=0 / crf=16.5000 / qcomp=0.70 / qpmin=0 / qpmax=69 / qpstep=4 / vbv_maxrate=62500 / vbv_bufsize=78125 / crf_max=0.0 / nal_hrd=none / filler=0 / ip_ratio=1.40 / pb_ratio=1.30 / aq=1:0.80
Language                    : English
Default                     : Yes
Forced                      : No
Color primaries             : BT.709
Transfer characteristics    : BT.709
Matrix coefficients         : BT.709
Color range                 : Limited

Audio #1
ID                          : 2
Format                      : AC-3
Format/Info                 : Audio Coding 3
Mode extension              : CM (complete main)
Format settings, Endianness : Big
Codec ID                    : A_AC3
Duration                    : 1h 21mn
Bit rate mode               : Constant
Bit rate                    : 192 Kbps
Channel(s)                  : 2 channels
Channel positions           : Front: L R
Sampling rate               : 48.0 KHz
Bit depth                   : 16 bits
Compression mode            : Lossy
Stream size                 : 112 MiB (1%)
Title                       : DVO [Novuj] 2.0 192 kbps [Hurtom-patriot2305]
Language                    : Ukrainian
Default                     : Yes
Forced                      : No

Audio #2
ID                          : 3
Format                      :
Format/Info                 : Digital Theater Systems
Mode                        : 16
Format settings, Endianness : Big
Codec ID                    : A_DTS
Duration                    : 1h 21mn
Bit rate mode               : Constant
Bit rate                    : 1 509 Kbps
Channel(s)                  : 6 channels
Channel positions           : Front: L C R, Side: L R, LFE
Sampling rate               : 48.0 KHz
Bit depth                   : 24 bits
Compression mode            : Lossy
Stream size                 : 880 MiB (10%)
Title                       : Original 5.1 1509 kbps
Language                    : English
Default                     : No
Forced                      : No

Text #1
ID                          : 4
Format                      : UTF-8
Codec ID                    : S_TEXT/UTF8
Codec ID/Info               : UTF-8 Plain Text
Title                       : full [HQSub's]
Language                    : Ukrainian
Default                     : No
Forced                      : No

Text #2
ID                          : 5
Format                      : UTF-8
Codec ID                    : S_TEXT/UTF8
Codec ID/Info               : UTF-8 Plain Text
Language                    : English
Default                     : No
Forced                      : No

Menu
00:00:00.000                : en:Chapter 1
00:10:24.832                : en:Chapter 2
00:21:43.385                : en:Chapter 3
00:31:52.702                : en:Chapter 4
00:40:15.079                : en:Chapter 5
00:50:28.442                : en:Chapter 6
01:01:28.267                : en:Chapter 7
01:11:08.263                : en:Chapter 8

Код:
raw [info]: 1920x802p 1:1 @ 24000/1001 fps (cfr)
[info]: using SAR=1/1
[info]: using cpu capabilities: MMX2 SSE2Fast SSSE3 SSE4.2 AVX
[info]: profile High, level 4.1
[info]: frame I:900   Avg QP:12.77  size:197957
[info]: frame P:26474 Avg QP:13.70  size:108408
[info]: frame B:89830 Avg QP:16.26  size: 52501
[info]: consecutive B-frames:  2.9%  3.6%  6.3% 24.8% 12.6% 36.8%  5.4%  5.7%  1.9%
[info]: mb I  I16..4:  5.4% 84.3% 10.4%
[info]: mb P  I16..4:  2.5% 33.4%  2.4%  P16..4: 19.6% 26.0% 10.1%  1.8%  0.1%    skip: 4.1%
[info]: mb B  I16..4:  0.9%  7.0%  0.4%  B16..8: 35.5% 24.1%  4.5%  direct: 9.4%  skip:18.3%  L0:43.7% L1:42.1% BI:14.1%
[info]: 8x8 transform intra:85.9% inter:56.7%
[info]: coded y,uvDC,uvAC intra: 83.9% 83.7% 70.4% inter: 38.7% 26.8% 5.6%
[info]: i16 v,h,dc,p: 66% 13%  5% 16%
[info]: i8 v,h,dc,ddl,ddr,vr,hd,vl,hu: 10%  8% 18%  9% 11% 10% 11% 11% 13%
[info]: i4 v,h,dc,ddl,ddr,vr,hd,vl,hu: 27%  7% 24%  6%  8%  7%  7%  6%  8%
[info]: i8c dc,h,v,p: 37% 27% 22% 15%
[info]: Weighted P-Frames: Y:10.4% UV:7.4%
[info]: ref P L0: 51.6%  6.3% 21.1% 10.9%  8.5%  1.6%  0.1%
[info]: ref B L0: 76.0% 17.3%  5.4%  1.3%
[info]: ref B L1: 91.5%  8.5%
[info]: kb/s:12706.58

encoded 117204 frames, 4.31 fps, 12706.58 kb/s, duration 7:33:15.95
Оригінал <----------> Ріп











Джерела та подяки: &
ріп відео, оригінальні звук та субтитри - SbR (Skazhutin) (HDClub); українська доріжка - patriot2305 - зведення, POMEO - запис з ТБ; українські субтитри - HQSub's, українізований постер - bilenkuyboy; фільмографії акторів та інформація про озвучення - Віктор (всі - Гуртом).


ЗАЛИШАЙТЕСЬ ЯКОМОГА ДОВШЕ НА РОЗДАЧІ!

СКАЧАВ САМ - ДАЙ СКАЧАТИ ІНШИМ


 Трекер:    Зареєстрований   

Завантажити / скачати фільм українською



відео для новачків



 Зареєстрований:   2015-04-09 01:44
 Розмір:   8.2 GB 
 Оцінка фільму:   3.4/10 (Голосів: 16)
   
Інші релізи
   Джона Хекс / Jonah Hex (2010) Ukr/Eng | sub Ukr/Eng patriot2305  5 / 0   1.35 GB   2013-05-23 07:58 
Ваш часовий пояс: GMT + 2 Години

Нова тема   Відповісти