Завантажити та скачати торренти українською


Перегони Гарматне ядро / The Cannonball Run (1981) 1080p Ukr/Eng | Sub Eng

Нові коментарі

Нова тема   Відповісти
Автор Повідомлення
Anonymous 







2015-04-08 19:23  
Перегони Гарматне ядро / The Cannonball Run (1981) 1080p Ukr/Eng | Sub Eng



Жанр: пригодницький, бойовик, комедія
Країна: США, Гонконг



Кінокомпанія: Golden Harvest Company, Eurasia Investments
Режисер: Гел Нідем / Hal Needham
Актори: Берт Рейнольдс / Burt Reynolds, Роджер Мур / Roger Moore, Фара Фоссет / Farrah Fawcett, Дом ДеЛюіс / Dom DeLuise, Джекі Чан / Jackie Chan та інші

Сюжет:
Приз на чималу суму отримає той з учасників транснаціональних автомобільних перегонів, хто першим прийде до фінішу. Перегони, як завжди, без правил, і беруть участь в них найвідчайдушніші гонщики світу. Головне - стати першим за всяку ціну.


Рейтинг MPAA: PG - рекомендується присутність батьків
Вікова категорія: 12+

Тривалість: 01:35:35
Якість: 1080p
Відео:
кодек:
розмір кадру: 1920 х 1080
бітрейт: 16887 кбіт/с [crf=18]

Аудіо # 1:
мова: українська
переклад: багатоголосий закадровий
ролі озвучили: Олег Стальчук, Євген Пашин, Анатолій Пашнін і один жіночий голос
кодек: 2.0
бітрейт: 192 кбіт/с

Аудіо # 2:
мова: англійська
переклад: оригінал
кодек: 5.1
бітрейт: 1509 кбіт/с

Субтитри:
мова: англійська
тип: програмні (м'які)
формат: *.srt

Збережено оригінальні розділи, як на Blu-ray.
MediaInfo та log
Код:
General
Unique ID                   : 223350719771794497811550225602115291787 (0xA807C8AFB1F09A2EA50BFF8768D44A8B)
Complete name               : The Cannonball Run (1981) [Ukr,Eng sub.Eng] 1080p [Hurtom & HDClub].mkv
Format                      : Matroska
Format version              : Version 4 / Version 2
File size                   : 12.4 GiB
Duration                    : 1h 35mn
Overall bit rate            : 18.6 Mbps
Movie name                  : Перегони Гарматне ядро / The Cannonball Run (1981) [Ukr,Eng sub.Eng] 1080p [Hurtom & HDClub]
Encoded date                : UTC 2015-04-08 07:20:38
Writing application         : mkvmerge v7.8.0 ('River Man') 64bit built on Mar 27 2015 16:31:37
Writing library             : libebml v1.3.1 + libmatroska v1.4.2
Attachements                : cover.jpg / xlog.txt
DURATION                    : 01:35:27.637000000
NUMBER_OF_FRAMES            : 1510
NUMBER_OF_BYTES             : 53104
_STATISTICS_WRITING_APP     : mkvmerge v7.8.0 ('River Man') 64bit built on Mar 27 2015 16:31:37
_STATISTICS_WRITING_DATE_UT : 2015-04-08 07:20:38
_STATISTICS_TAGS            : BPS DURATION NUMBER_OF_FRAMES NUMBER_OF_BYTES

Video
ID                          : 1
Format                      : AVC
Format/Info                 : Advanced Video Codec
Format profile              : [email protected]
Format settings, CABAC      : Yes
Format settings, ReFrames   : 4 frames
Codec ID                    : V_MPEG4/ISO/AVC
Duration                    : 1h 35mn
Bit rate                    : 16.5 Mbps
Width                       : 1 920 pixels
Height                      : 1 080 pixels
Display aspect ratio        : 16:9
Frame rate mode             : Constant
Frame rate                  : 23.976 fps
Color space                 : YUV
Chroma subsampling          : 4:2:0
Bit depth                   : 8 bits
Scan type                   : Progressive
Bits/(Pixel*Frame)          : 0.332
Stream size                 : 11.0 GiB (89%)
Title                       : Перегони Гарматне ядро / The Cannonball Run / Гонки "Пушечное ядро" (1981) 1080p [HDClub-SbR]
Writing library             : core 146 r2538kMod 121396c
Encoding settings           : cabac=1 / ref=4 / deblock=1:-2:-2 / analyse=0x3:0x133 / me=umh / subme=11 / psy=1 / fade_compensate=0.00 / psy_rd=1.00:0.00 / mixed_ref=1 / me_range=32 / chroma_me=1 / trellis=2 / 8x8dct=1 / cqm=0 / deadzone=21,11 / fast_pskip=1 / chroma_qp_offset=-2 / threads=12 / lookahead_threads=2 / sliced_threads=0 / nr=0 / decimate=1 / interlaced=0 / bluray_compat=0 / constrained_intra=0 / fgo=0 / bframes=7 / b_pyramid=2 / b_adapt=2 / b_bias=0 / direct=1 / weightb=1 / open_gop=0 / weightp=2 / keyint=250 / keyint_min=23 / scenecut=40 / intra_refresh=0 / rc_lookahead=60 / rc=crf / mbtree=0 / crf=18.0000 / qcomp=0.70 / qpmin=0 / qpmax=69 / qpstep=4 / vbv_maxrate=62500 / vbv_bufsize=78125 / crf_max=0.0 / nal_hrd=none / filler=0 / ip_ratio=1.40 / pb_ratio=1.30 / aq=1:0.80
Language                    : English
Default                     : Yes
Forced                      : No
Color primaries             : BT.709
Transfer characteristics    : BT.709
Matrix coefficients         : BT.709
Color range                 : Limited

Audio #1
ID                          : 2
Format                      : AC-3
Format/Info                 : Audio Coding 3
Mode extension              : CM (complete main)
Format settings, Endianness : Big
Codec ID                    : A_AC3
Duration                    : 1h 35mn
Bit rate mode               : Constant
Bit rate                    : 192 Kbps
Channel(s)                  : 2 channels
Channel positions           : Front: L R
Sampling rate               : 48.0 KHz
Bit depth                   : 16 bits
Compression mode            : Lossy
Stream size                 : 131 MiB (1%)
Title                       : MVO [ICTV] 2.0 192 kbps [Hurtom-robotron005]
Language                    : Ukrainian
Default                     : Yes
Forced                      : No

Audio #2
ID                          : 3
Format                      :
Format/Info                 : Digital Theater Systems
Mode                        : 16
Format settings, Endianness : Big
Codec ID                    : A_DTS
Duration                    : 1h 35mn
Bit rate mode               : Constant
Bit rate                    : 1 509 Kbps
Channel(s)                  : 6 channels
Channel positions           : Front: L C R, Side: L R, LFE
Sampling rate               : 48.0 KHz
Bit depth                   : 16 bits
Compression mode            : Lossy
Stream size                 : 1.01 GiB (8%)
Title                       : Original 5.1 1509 kbps
Language                    : English
Default                     : No
Forced                      : No

Text
ID                          : 4
Format                      : UTF-8
Codec ID                    : S_TEXT/UTF8
Codec ID/Info               : UTF-8 Plain Text
Language                    : English
Default                     : No
Forced                      : No

Menu
00:00:00.000                : en:00:00:00.000
00:08:10.115                : en:00:08:10.115
00:16:56.515                : en:00:16:56.515
00:23:31.619                : en:00:23:31.619
00:31:41.775                : en:00:31:41.775
00:42:56.491                : en:00:42:56.491
00:52:17.176                : en:00:52:17.176
01:02:39.839                : en:01:02:39.839
01:09:48.893                : en:01:09:48.893
01:16:45.684                : en:01:16:45.684
01:25:53.690                : en:01:25:53.690
01:32:13.695                : en:01:32:13.695

Код:
raw [info]: 1920x1080p 1:1 @ 24000/1001 fps (cfr)
[info]: using SAR=1/1
[info]: using cpu capabilities: MMX2 SSE2Fast SSSE3 SSE4.2 AVX
[info]: profile High, level 4.1
[info]: frame I:979   Avg QP:17.88  size:243971
[info]: frame P:30749 Avg QP:18.03  size:134464
[info]: frame B:105793 Avg QP:19.99  size: 73105
[info]: consecutive B-frames:  0.9%  0.8% 17.9% 20.2% 23.8% 32.8%  3.1%  0.5%
[info]: mb I  I16..4:  0.7% 98.1%  1.2%
[info]: mb P  I16..4:  0.2% 38.1%  0.3%  P16..4: 25.3% 26.0%  8.5%  0.5%  0.0%    skip: 1.0%
[info]: mb B  I16..4:  0.0% 12.8%  0.0%  B16..8: 35.3% 17.9%  2.9%  direct:13.7%  skip:17.3%  L0:39.1% L1:39.1% BI:21.8%
[info]: 8x8 transform intra:99.0% inter:72.2%
[info]: coded y,uvDC,uvAC intra: 98.5% 90.2% 65.3% inter: 54.2% 44.6% 4.6%
[info]: i16 v,h,dc,p: 41% 20% 10% 29%
[info]: i8 v,h,dc,ddl,ddr,vr,hd,vl,hu: 10% 10% 23%  8% 10%  9%  9%  9% 12%
[info]: i4 v,h,dc,ddl,ddr,vr,hd,vl,hu: 10%  8%  4%  8% 17% 16% 15% 10% 12%
[info]: i8c dc,h,v,p: 47% 26% 16% 10%
[info]: Weighted P-Frames: Y:3.2% UV:2.1%
[info]: ref P L0: 50.1% 12.7% 25.6%  9.2%  2.3%  0.0%
[info]: ref B L0: 87.0% 10.6%  2.4%
[info]: ref B L1: 93.5%  6.5%
[info]: kb/s:16887.02

encoded 137521 frames, 3.63 fps, 16887.02 kb/s, duration 10:31:58.91
Оригінал <----------> Ріп








Джерела та подяки: &
ріп відео, оригінальні звук та субтитри - SbR (Skazhutin) (HDClub); українська доріжка - robotron005 - зведення, MAKAPOHHIK - запис з ТБ; фільмографії акторів та інформація про озвучення - Віктор (всі - Гуртом).


ЗАЛИШАЙТЕСЬ ЯКОМОГА ДОВШЕ НА РОЗДАЧІ!

СКАЧАВ САМ - ДАЙ СКАЧАТИ ІНШИМ


Срібний реліз (на рейтинг впливає 50% завантаженого)
 Трекер:    Зареєстрований   

Завантажити / скачати фільм українською



відео для новачків



 Зареєстрований:   2015-04-08 19:23
 Розмір:   12.41 GB 
 Оцінка фільму:   2.5/10 (Голосів: 12)
   
Ваш часовий пояс: GMT + 2 Години

Нова тема   Відповісти