Завантажити та скачати торренти українською


Баффало '66 / Буффало '66 / Buffalo ’66 (1998) 720p 3хUkr/Eng | Sub Eng

Нові коментарі

Нова тема   Відповісти
Автор Повідомлення
Anonymous 







2015-04-07 23:00  
Баффало '66 / Буффало '66 / Buffalo ’66 (1998) 720p 3хUkr/Eng | Sub Eng



Українські, альтернативні постери та графіка




















повнорозмірні скріншоти відкриваються по кліку (з натиснутим CTRL чи середньою кнопкою - у іншій вкладці)


Жанр: драма, мелодрама, комедія, кримінальний
Країна: США



Кінокомпанія: Cinépix Film Properties (CFP), Lions Gate Films, Muse Productions
Режисер: Вінсент Ґалло / Vincent Gallo
Сценарій: Вінсент Ґалло / Vincent Gallo, Елісон Багналл / Alison Bagnall
Композитор: Вінсент Ґалло / Vincent Gallo
Актори: Вінсент Ґалло / Vincent Gallo, Крістіна Річчі / Christina Ricci, Бен Ґазара / Ben Gazzara, Міккі Рурк / Mickey Rourke та інші

Сюжет:
Біллі Браун (Вінсент Ґалло), отримавши 5 років ув'язнення за злочин, якого не скоював, шукає вбиральню аби відлити... її пошуки закінчуються викраденням молодої дівчини Лейли (Крістіна Річчі) для здійснення свого плану з переконання своїх батьків (які не знають про його ув'язнення) під час відвідання свого дому після довгої відсутності. Лейла погоджується йому підіграти і далі глядач дізнається багато цікавого як про новоспечену пару, так і про сім'ю Біллі.
Також головним героєм керує почуття помсти за згаяні роки несправедливого але вимушеного покарання, яким він занапастив себе, щоб врятувати своїх невдячних батьків.
Власне з вище викладених внутрішніх поштовхів персонажа, сплітається неймовірна, психологічно нестабільна доля двох, ще донедавна чужих людей.


Рейтинг MPAA: R - особам до 17 років обов'язкова присутність батьків або дорослого опікуна
Вікова категорія: 16+

Тривалість: 01:49:52
Якість: 720p [CtrlHD]
Відео:
кодек:
розмір кадру: 1280 х 692
бітрейт: 8294 кбіт/с [crf=18]

Аудіо # 1:
мова: українська
переклад: багатоголосий закадровий | Так Треба Продакшн
ролі озвучили: Бан Ґаззара — Олег Стальчук
кодек: 2.0
бітрейт: 192 кбіт/с

Аудіо # 2:
мова: українська
переклад: двоголосий закадровий | Студія 1+1
кодек: 2.0
бітрейт: 192 кбіт/с
примітка: якість запису погана, з 0:48:53 відсутні 30 секунд українського перекладу (завантажити форсовані субтитри), з 01:25:10 по 01:28:08 присутній невеликий розсинхрон.
Інформація про озвучення 1+1
Переклад: Лідія Громовенко
Літературний редактор: Ганна Ведмідь
Звукорежисер: Віктор Коляда
Режисер: Богдан Підгірний
Ролі озвучили: Тетяна Антонова і Андрій Бурлуцький
Аудіо # 3:
мова: українська
переклад: двоголосий закадровий
ролі озвучили: Катерина Буцька і Михайло Тишин
кодек: 2.0
бітрейт: 192 кбіт/с

Аудіо # 4:
мова: англійська
переклад: оригінал
кодек: 2.0
бітрейт: 640 кбіт/с

Субтитри:
мова: англійська
тип: програмні (м'які)
формат: *.srt

Збережено оригінальні розділи, як на Blu-ray.
MediaInfo
Код:
General
Unique ID                   : 222119213374943895557404884704505019306 (0xA71A9ABBADD2BFC5A9C1E9E31FF6BBAA)
Complete name               : Buffalo 66 (1998) [3xUkr,Eng sub.Eng] 720p [Hurtom & HDClub].mkv
Format                      : Matroska
Format version              : Version 4 / Version 2
File size                   : 7.45 GiB
Duration                    : 1h 49mn
Overall bit rate            : 9 703 Kbps
Movie name                  : Баффало '66 / Буффало '66 / Buffalo 66 (1998) 720p [Hurtom & HDClub]
Encoded date                : UTC 2015-04-07 15:55:46
Writing application         : mkvmerge v7.8.0 ('River Man') 64bit built on Mar 27 2015 16:31:37
Writing library             : libebml v1.3.1 + libmatroska v1.4.2
DURATION                    : 01:49:52.224000000
NUMBER_OF_FRAMES            : 206007
NUMBER_OF_BYTES             : 158213376
_STATISTICS_WRITING_APP     : mkvmerge v7.8.0 ('River Man') 64bit built on Mar 27 2015 16:31:37
_STATISTICS_WRITING_DATE_UT : 2015-04-07 15:55:46
_STATISTICS_TAGS            : BPS DURATION NUMBER_OF_FRAMES NUMBER_OF_BYTES

Video
ID                          : 1
Format                      : AVC
Format/Info                 : Advanced Video Codec
Format profile              : [email protected]
Format settings, CABAC      : Yes
Format settings, ReFrames   : 9 frames
Codec ID                    : V_MPEG4/ISO/AVC
Duration                    : 1h 49mn
Bit rate                    : 8 294 Kbps
Width                       : 1 280 pixels
Height                      : 692 pixels
Display aspect ratio        : 1.85:1
Frame rate mode             : Constant
Frame rate                  : 23.976 fps
Color space                 : YUV
Chroma subsampling          : 4:2:0
Bit depth                   : 8 bits
Scan type                   : Progressive
Bits/(Pixel*Frame)          : 0.391
Stream size                 : 6.37 GiB (85%)
Title                       : Баффало '66 / Буффало '66 / Buffalo ’66 (1998) 720p [CtrlHD]
Writing library             : core 140 r2377kMod 1ca7bb9
Encoding settings           : cabac=1 / ref=9 / deblock=1:-3:-3 / analyse=0x3:0x113 / me=umh / subme=10 / psy=1 / fade_compensate=0.00 / psy_rd=1.15:0.00 / mixed_ref=1 / me_range=16 / chroma_me=1 / trellis=2 / 8x8dct=1 / cqm=0 / deadzone=21,11 / fast_pskip=0 / chroma_qp_offset=-2 / threads=6 / lookahead_threads=1 / sliced_threads=0 / nr=0 / decimate=0 / interlaced=0 / bluray_compat=0 / constrained_intra=0 / fgo=0 / bframes=10 / b_pyramid=2 / b_adapt=2 / b_bias=0 / direct=3 / weightb=1 / open_gop=0 / weightp=2 / keyint=250 / keyint_min=23 / scenecut=40 / intra_refresh=0 / rc_lookahead=30 / rc=crf / mbtree=0 / crf=18.0000 / qcomp=0.70 / qpmin=0 / qpmax=69 / qpstep=4 / vbv_maxrate=20000 / vbv_bufsize=15000 / crf_max=0.0 / nal_hrd=none / filler=0 / ip_ratio=1.20 / pb_ratio=1.10 / aq=1:0.80
Language                    : English
Default                     : Yes
Forced                      : No
DURATION                    : 01:49:52.253000000
NUMBER_OF_FRAMES            : 158056
NUMBER_OF_BYTES             : 6996315723
_STATISTICS_WRITING_APP     : mkvmerge v7.8.0 ('River Man') 64bit built on Mar 27 2015 16:31:37
_STATISTICS_WRITING_DATE_UT : 2015-04-07 15:55:46
_STATISTICS_TAGS            : BPS DURATION NUMBER_OF_FRAMES NUMBER_OF_BYTES

Audio #1
ID                          : 2
Format                      : AC-3
Format/Info                 : Audio Coding 3
Mode extension              : CM (complete main)
Format settings, Endianness : Big
Codec ID                    : A_AC3
Duration                    : 1h 49mn
Bit rate mode               : Constant
Bit rate                    : 192 Kbps
Channel(s)                  : 2 channels
Channel positions           : Front: L R
Sampling rate               : 48.0 KHz
Bit depth                   : 16 bits
Compression mode            : Lossy
Stream size                 : 151 MiB (2%)
Title                       : MVO [TTP-Inter] 2.0 192 kbps [Hurtom-robotron005]
Language                    : Ukrainian
Default                     : Yes
Forced                      : No

Audio #2
ID                          : 3
Format                      : AC-3
Format/Info                 : Audio Coding 3
Mode extension              : CM (complete main)
Format settings, Endianness : Big
Codec ID                    : A_AC3
Duration                    : 1h 49mn
Bit rate mode               : Constant
Bit rate                    : 192 Kbps
Channel(s)                  : 2 channels
Channel positions           : Front: L R
Sampling rate               : 48.0 KHz
Bit depth                   : 16 bits
Compression mode            : Lossy
Stream size                 : 151 MiB (2%)
Title                       : DVO [1+1] 2.0 192 kbps [Hurtom-ProgBassing]
Language                    : Ukrainian
Default                     : No
Forced                      : No

Audio #3
ID                          : 4
Format                      : AC-3
Format/Info                 : Audio Coding 3
Mode extension              : CM (complete main)
Format settings, Endianness : Big
Codec ID                    : A_AC3
Duration                    : 1h 49mn
Bit rate mode               : Constant
Bit rate                    : 192 Kbps
Channel(s)                  : 2 channels
Channel positions           : Front: L R
Sampling rate               : 48.0 KHz
Bit depth                   : 16 bits
Compression mode            : Lossy
Stream size                 : 151 MiB (2%)
Title                       : DVO [Novyj] 2.0 192 kbps [Hurtom-robotron005]
Language                    : Ukrainian
Default                     : No
Forced                      : No

Audio #4
ID                          : 5
Format                      : AC-3
Format/Info                 : Audio Coding 3
Mode extension              : CM (complete main)
Format settings, Endianness : Big
Codec ID                    : A_AC3
Duration                    : 1h 49mn
Bit rate mode               : Constant
Bit rate                    : 640 Kbps
Channel(s)                  : 2 channels
Channel positions           : Front: L R
Sampling rate               : 48.0 KHz
Bit depth                   : 16 bits
Compression mode            : Lossy
Stream size                 : 503 MiB (7%)
Title                       : Original 2.0 640 kbps
Language                    : English
Default                     : No
Forced                      : No

Text
ID                          : 6
Format                      : UTF-8
Codec ID                    : S_TEXT/UTF8
Codec ID/Info               : UTF-8 Plain Text
Language                    : English
Default                     : No
Forced                      : No

Menu
00:00:00.000                : en:Chapter 1
00:03:22.201                : en:Chapter 2
00:07:25.236                : en:Chapter 3
00:15:06.947                : en:Chapter 4
00:19:54.735                : en:Chapter 5
00:28:50.186                : en:Chapter 6
00:33:51.738                : en:Chapter 7
00:39:12.016                : en:Chapter 8
00:45:43.532                : en:Chapter 9
00:52:10.126                : en:Chapter 10
00:57:26.776                : en:Chapter 11
01:03:11.370                : en:Chapter 12
01:09:00.344                : en:Chapter 13
01:17:52.834                : en:Chapter 14
01:26:43.364                : en:Chapter 15
01:34:14.231                : en:Chapter 16
01:42:01.406                : en:Chapter 17
01:45:10.262                : en:Chapter 18
Оригінал <------------------------->CtrlHD (цей реліз)<--------------------->AMIABLE (старий реліз)



Оригінал <------------>CtrlHD (цей реліз)




Джерела та подяки: &
ріп відео, оригінальні звук та субтитри - CtrlHD (HDbits), ilgizik01 (HDClub); українські доріжки - robotron005 (#1, #3) - зведення, MAKAPOHHIK (#1, #3) - запис з ТБ, ProgBassing - запис та синхронізація #2; українізовані постери - DrediS; фільмографії акторів та інформація про озвучення - Віктор. Також дякую patriot2305 за роботу над релізом та BOOGud за графічні матеріали до фільму (всі - Гуртом).


ЗАЛИШАЙТЕСЬ ЯКОМОГА ДОВШЕ НА РОЗДАЧІ!

СКАЧАВ САМ - ДАЙ СКАЧАТИ ІНШИМ


Срібний реліз (на рейтинг впливає 50% завантаженого)
 Трекер:    Зареєстрований   

Завантажити / скачати фільм українською



відео для новачків



 Зареєстрований:   2015-04-07 23:00
 Розмір:   7.45 GB 
 Оцінка фільму:   3.2/10 (Голосів: 17)
   
Інші релізи
Anonymous 







2015-04-07 23:14  
Від попереднього релізу відрізняється крім доданої доріжки від 1+1, вищою якістю відеоряду з правильним співвідношенням сторін (1280 х 692 проти 1280 х 688).
ghost2014 
Новенький


З нами з: 31.08.13
Востаннє: 04.12.16
Повідомлень: 12

2015-04-08 16:41  
в доріжці 1 + 1, починаючи з 1:25:10, присутній рассінхрон, ще був момент без перекладу. Даремно тільки скачав роздачу. Наступного разу перевіряй реліз перед тим як викласти. З іншими доріжками все нормально.
Anonymous 







2015-04-08 16:49  
ghost2014 написано:
Даремно тільки скачав роздачу.

Не бреши, ти не скачував мій реліз. Розсинхрон дійсно є, десь на протязі не більше двох хвилин. Цікаво, що в релізі patriot2305, звідки ця доріжка (до речі, вона там за замовчуванням) і саме який ти скачав за рік ніхто з майже сотні користувачів, що завантажили, не написав про місце без перекладу чи розсинхрон.

ghost2014 
Новенький


З нами з: 31.08.13
Востаннє: 04.12.16
Повідомлень: 12

2015-04-08 17:12  
igor911
Писав в іншу тему де скачав, але судячи звідки взяті доріжки, можна зі сміливістю сказати, що є рассіхрон. Перевірте, і переконайтеся самі.

Anonymous 







2015-04-08 17:15  
ghost2014, переконався. не критично, перемкнись на іншу укр. доріжку на ті 2 хв.
Anonymous 







2015-04-08 21:07  
Додав в опис недоліки доріжки від 1+1 та лінк на форсовані субтитри до неї.
Ваш часовий пояс: GMT + 2 Години

Нова тема   Відповісти