Завантажити та скачати торренти українською


Баффало '66 / Буффало '66 / Buffalo ’66 (1998) 1080p 3хUkr/Eng | Sub Eng

Нові коментарі

Нова тема   Відповісти
Автор Повідомлення
Anonymous 







2015-04-07 22:38  
Баффало '66 / Буффало '66 / Buffalo ’66 (1998) 1080p 3хUkr/Eng | Sub Eng



Українські, альтернативні постери та графіка




















повнорозмірні скріншоти відкриваються по кліку (з натиснутим CTRL чи середньою кнопкою - у іншій вкладці)


Жанр: драма, мелодрама, комедія, кримінальний
Країна: США



Кінокомпанія: Cinépix Film Properties (CFP), Lions Gate Films, Muse Productions
Режисер: Вінсент Ґалло / Vincent Gallo
Сценарій: Вінсент Ґалло / Vincent Gallo, Елісон Багналл / Alison Bagnall
Композитор: Вінсент Ґалло / Vincent Gallo
Актори: Вінсент Ґалло / Vincent Gallo, Крістіна Річчі / Christina Ricci, Бен Ґазара / Ben Gazzara, Міккі Рурк / Mickey Rourke та інші

Сюжет:
Біллі Браун (Вінсент Ґалло), отримавши 5 років ув'язнення за злочин, якого не скоював, шукає вбиральню аби відлити... її пошуки закінчуються викраденням молодої дівчини Лейли (Крістіна Річчі) для здійснення свого плану з переконання своїх батьків (які не знають про його ув'язнення) під час відвідання свого дому після довгої відсутності. Лейла погоджується йому підіграти і далі глядач дізнається багато цікавого як про новоспечену пару, так і про сім'ю Біллі.
Також головним героєм керує почуття помсти за згаяні роки несправедливого але вимушеного покарання, яким він занапастив себе, щоб врятувати своїх невдячних батьків.
Власне з вище викладених внутрішніх поштовхів персонажа, сплітається неймовірна, психологічно нестабільна доля двох, ще донедавна чужих людей.


Рейтинг MPAA: R - особам до 17 років обов'язкова присутність батьків або дорослого опікуна
Вікова категорія: 16+

Тривалість: 01:49:52
Якість: 1080p [CRiSC]
Відео:
кодек:
розмір кадру: 1980 х 1038
бітрейт: 16,7 Мбіт/с

Аудіо # 1:
мова: українська
переклад: багатоголосий закадровий | Так Треба Продакшн
ролі озвучили: Бан Ґаззара — Олег Стальчук
кодек: 2.0
бітрейт: 192 кбіт/с

Аудіо # 2:
мова: українська
переклад: двоголосий закадровий | Студія 1+1
кодек: 2.0
бітрейт: 192 кбіт/с
примітка: якість запису погана, з 0:48:53 відсутні 30 секунд українського перекладу (завантажити форсовані субтитри), з 01:25:10 по 01:28:08 присутній невеликий розсинхрон.
Інформація про озвучення 1+1
Переклад: Лідія Громовенко
Літературний редактор: Ганна Ведмідь
Звукорежисер: Віктор Коляда
Режисер: Богдан Підгірний
Ролі озвучили: Тетяна Антонова і Андрій Бурлуцький
Аудіо # 3:
мова: українська
переклад: двоголосий закадровий
ролі озвучили: Катерина Буцька і Михайло Тишин
кодек: 2.0
бітрейт: 192 кбіт/с

Аудіо # 4:
мова: англійська
переклад: оригінал
кодек: 2.0
бітрейт: 640 кбіт/с

Субтитри:
мова: англійська
тип: програмні (м'які)
формат: *.srt

Збережено оригінальні розділи, як на Blu-ray.
MediaInfo
Код:
General
Unique ID                   : 196277187388824273338154570706923012352 (0x93A99C7B7C090F9A9115BBCF317BC100)
Complete name               : Buffalo 66 (1998) [3xUkr,Eng sub.Eng] 1080p [Hurtom & HDClub].mkv
Format                      : Matroska
Format version              : Version 4 / Version 2
File size                   : 13.8 GiB
Duration                    : 1h 49mn
Overall bit rate            : 17.9 Mbps
Movie name                  : Баффало '66 / Буффало '66 / Buffalo 66 (1998) 1080p [Hurtom & HDClub]
Encoded date                : UTC 2015-04-07 15:10:46
Writing application         : mkvmerge v7.8.0 ('River Man') 64bit built on Mar 27 2015 16:31:37
Writing library             : libebml v1.3.1 + libmatroska v1.4.2
DURATION                    : 01:49:52.224000000
NUMBER_OF_FRAMES            : 206007
NUMBER_OF_BYTES             : 158213376
_STATISTICS_WRITING_APP     : mkvmerge v7.8.0 ('River Man') 64bit built on Mar 27 2015 16:31:37
_STATISTICS_WRITING_DATE_UT : 2015-04-07 15:10:46
_STATISTICS_TAGS            : BPS DURATION NUMBER_OF_FRAMES NUMBER_OF_BYTES

Video
ID                          : 1
Format                      : AVC
Format/Info                 : Advanced Video Codec
Format profile              : [email protected]
Format settings, CABAC      : Yes
Format settings, ReFrames   : 4 frames
Codec ID                    : V_MPEG4/ISO/AVC
Duration                    : 1h 49mn
Bit rate                    : 16.7 Mbps
Width                       : 1 920 pixels
Height                      : 1 038 pixels
Display aspect ratio        : 1.85:1
Frame rate mode             : Constant
Frame rate                  : 23.976 fps
Color space                 : YUV
Chroma subsampling          : 4:2:0
Bit depth                   : 8 bits
Scan type                   : Progressive
Bits/(Pixel*Frame)          : 0.350
Stream size                 : 12.6 GiB (91%)
Title                       : Баффало '66 / Буффало '66 / Buffalo ’66 (1998) 1080p [CRiSC]
Writing library             : core 125 r2200 999b753
Encoding settings           : cabac=1 / ref=4 / deblock=1:-3:-3 / analyse=0x3:0x133 / me=umh / subme=11 / psy=1 / psy_rd=1.05:0.00 / mixed_ref=1 / me_range=32 / chroma_me=1 / trellis=2 / 8x8dct=1 / cqm=0 / deadzone=21,11 / fast_pskip=0 / chroma_qp_offset=-2 / threads=12 / lookahead_threads=2 / sliced_threads=0 / nr=0 / decimate=1 / interlaced=0 / bluray_compat=0 / constrained_intra=0 / bframes=9 / b_pyramid=2 / b_adapt=2 / b_bias=0 / direct=3 / weightb=1 / open_gop=0 / weightp=2 / keyint=250 / keyint_min=23 / scenecut=40 / intra_refresh=0 / rc_lookahead=40 / rc=2pass / mbtree=0 / bitrate=16714 / ratetol=1.0 / qcomp=0.60 / qpmin=0 / qpmax=69 / qpstep=4 / cplxblur=20.0 / qblur=0.5 / vbv_maxrate=62500 / vbv_bufsize=78125 / nal_hrd=none / ip_ratio=1.40 / pb_ratio=1.30 / aq=1:0.80
Language                    : English
Default                     : Yes
Forced                      : No
DURATION                    : 01:49:52.211000000
NUMBER_OF_FRAMES            : 158055
NUMBER_OF_BYTES             : 13768046406
_STATISTICS_WRITING_APP     : mkvmerge v7.8.0 ('River Man') 64bit built on Mar 27 2015 16:31:37
_STATISTICS_WRITING_DATE_UT : 2015-04-07 15:10:46
_STATISTICS_TAGS            : BPS DURATION NUMBER_OF_FRAMES NUMBER_OF_BYTES

Audio #1
ID                          : 2
Format                      : AC-3
Format/Info                 : Audio Coding 3
Mode extension              : CM (complete main)
Format settings, Endianness : Big
Codec ID                    : A_AC3
Duration                    : 1h 49mn
Bit rate mode               : Constant
Bit rate                    : 192 Kbps
Channel(s)                  : 2 channels
Channel positions           : Front: L R
Sampling rate               : 48.0 KHz
Bit depth                   : 16 bits
Compression mode            : Lossy
Stream size                 : 151 MiB (1%)
Title                       : MVO [TTP-Inter] 2.0 192 kbps [Hurtom-robotron005]
Language                    : Ukrainian
Default                     : Yes
Forced                      : No

Audio #2
ID                          : 3
Format                      : AC-3
Format/Info                 : Audio Coding 3
Mode extension              : CM (complete main)
Format settings, Endianness : Big
Codec ID                    : A_AC3
Duration                    : 1h 49mn
Bit rate mode               : Constant
Bit rate                    : 192 Kbps
Channel(s)                  : 2 channels
Channel positions           : Front: L R
Sampling rate               : 48.0 KHz
Bit depth                   : 16 bits
Compression mode            : Lossy
Stream size                 : 151 MiB (1%)
Title                       : DVO [1+1] 2.0 192 kbps [Hurtom-ProgBassing]
Language                    : Ukrainian
Default                     : No
Forced                      : No

Audio #3
ID                          : 4
Format                      : AC-3
Format/Info                 : Audio Coding 3
Mode extension              : CM (complete main)
Format settings, Endianness : Big
Codec ID                    : A_AC3
Duration                    : 1h 49mn
Bit rate mode               : Constant
Bit rate                    : 192 Kbps
Channel(s)                  : 2 channels
Channel positions           : Front: L R
Sampling rate               : 48.0 KHz
Bit depth                   : 16 bits
Compression mode            : Lossy
Stream size                 : 151 MiB (1%)
Title                       : DVO [Novyj] 2.0 192 kbps [Hurtom-robotron005]
Language                    : Ukrainian
Default                     : No
Forced                      : No

Audio #4
ID                          : 5
Format                      : AC-3
Format/Info                 : Audio Coding 3
Mode extension              : CM (complete main)
Format settings, Endianness : Big
Codec ID                    : A_AC3
Duration                    : 1h 49mn
Bit rate mode               : Constant
Bit rate                    : 640 Kbps
Channel(s)                  : 2 channels
Channel positions           : Front: L R
Sampling rate               : 48.0 KHz
Bit depth                   : 16 bits
Compression mode            : Lossy
Stream size                 : 503 MiB (4%)
Title                       : Original 2.0 640 kbps
Language                    : English
Default                     : No
Forced                      : No

Text
ID                          : 6
Format                      : UTF-8
Codec ID                    : S_TEXT/UTF8
Codec ID/Info               : UTF-8 Plain Text
Language                    : English
Default                     : No
Forced                      : No

Menu
00:00:00.000                : :00:00:00.000
00:03:22.201                : :00:03:22.201
00:07:25.236                : :00:07:25.236
00:15:06.947                : :00:15:06.947
00:19:54.735                : :00:19:54.735
00:28:50.186                : :00:28:50.186
00:33:51.738                : :00:33:51.738
00:39:12.016                : :00:39:12.016
00:45:43.532                : :00:45:43.532
00:52:10.126                : :00:52:10.126
00:57:26.776                : :00:57:26.776
01:03:11.370                : :01:03:11.370
01:09:00.344                : :01:09:00.344
01:17:52.834                : :01:17:52.834
01:26:43.364                : :01:26:43.364
01:34:14.231                : :01:34:14.231
01:42:01.406                : :01:42:01.406
01:45:10.262                : :01:45:10.262
Оригінал <----------> Ріп










Джерела та подяки: &
ріп відео, оригінальні звук та субтитри - CRiSC (HDbits), madoff (HDClub); українські доріжки - robotron005 (#1, #3) - зведення, MAKAPOHHIK (#1, #3) - запис з ТБ, ProgBassing - запис та синхронізація #2; українізовані постери - DrediS; фільмографії акторів та інформація про озвучення - Віктор (всі - Гуртом). Також дякую patriot2305 за роботу над релізом та BOOGud за графічні матеріали до фільму (всі - Гуртом).


ЗАЛИШАЙТЕСЬ ЯКОМОГА ДОВШЕ НА РОЗДАЧІ!

СКАЧАВ САМ - ДАЙ СКАЧАТИ ІНШИМ


Срібний реліз (на рейтинг впливає 50% завантаженого)
 Трекер:    Зареєстрований   

Завантажити / скачати фільм українською



відео для новачків



 Зареєстрований:   2015-04-07 22:38
 Розмір:   13.76 GB 
 Оцінка фільму:   2.9/10 (Голосів: 14)
   
Інші релізи
Anonymous 







2015-04-07 22:41  
Новий реліз 720p
don pedro 
Попереджень: 1
Попереджень: 1 


З нами з: 29.06.11
Востаннє: 04.12.16
Повідомлень: 8730

2015-04-07 22:41  
Дуже раджу цей правдивий, жорсткий і життєвий фільм про те, що завжди можна стриматись в останню мить і переступивши через тягарі минулого продовжити життя спочатку, знайшовши своє щастя і любов.
Anonymous 







2015-04-08 21:05  
додав в опис недоліки доріжки від 1+1 та лінк на форсовані субтитри до неї.
Ваш часовий пояс: GMT + 2 Години

Нова тема   Відповісти