Завантажити та скачати торренти українською


Блакитна лагуна / The Blue Lagoon (1980) Ukr/Eng | Sub Eng

Нові коментарі

Нова тема   Відповісти
Автор Повідомлення
Anonymous 







2015-04-07 21:17  
Блакитна лагуна / The Blue Lagoon (1980) Ukr/Eng | Sub Eng



Українізований та альтернативний постери






повнорозмірні скріншоти відкриваються по кліку (з натиснутим CTRL чи середньою кнопкою - у іншій вкладці)


Жанр: драма, мелодрама, пригодницький
Країна: США



Кінокомпанія: Columbia Pictures
Режисер: Рендел Клейзер / Randal Kleiser
Актори: Брук Шилдс / Brooke Shields, Крістофер Аткінс / Christopher Atkins, Лео Маккерн / Leo McKern, Вільям Деніелс / William Daniels, Елва Джозефсон / Elva Josephson, Глен Коен / Glenn Kohan та інші

Сюжет:
Одного разу у відкритому морі на кораблі сталася пожежа, внаслідок чого він пішов на дно. У одній з шлюпок врятувалися двоє дітей (син капітана та його племінниця), а також корабельний кок, який наглядав за ними. У іншій шлюпкі врятувався сам капітан та його команда. Обидва кораблі понесло у різні боки. Шлюпка з дітьми приплив до берега безлюдного острова.

Хлопчик і дівчинка почали жити довгі роки на прекрасному тропічному острові. Але з часом вони дорослішають, і у їхніх серцях зароджується справжнє, чисте кохання...


Рейтинг MPAA: R - особам до 17 років обов'язкова присутність батьків або дорослого опікуна
Вікова категорія: 13+

Тривалість: 01:44:44
Якість:
Відео:
кодек: build 65
розмір кадру: 704x384
бітрейт: 1884 кбіт/с

Аудіо # 1:
мова: українська
переклад: багатоголосий закадровий | Так Треба Продакшн на замовлення ТК "Інтер"
ролі озвучили: Юрій Гребельник, Анатолій Пашнін і один чи два жіночих голоси
кодек: 2.0
бітрейт: 192 кб/с

Аудіо # 2:
мова: англійська
переклад: оригінал
кодек: 5.1
бітрейт: 448 кбіт/с

Субтитри:
мова: англійська (завантажити)
тип: програмні (м'які)
формат: *.srt
MediaInfo
Код:
General
Complete name               : The Blue Lagoon (1980) [Ukr,Eng] [Hurtom & HQClub].avi
Format                      : AVI
Format/Info                 : Audio Video Interleave
File size                   : 1.84 GiB
Duration                    : 1h 44mn
Overall bit rate            : 2 522 Kbps
Movie name                  : Блакитна лагуна / The Blue Lagoon (1980)
Director                    : igor911 & kingsize87
Writing application         : VirtualDubModRus 1.5.10.2 (build 2540/release) VirtualDubMod build 2540/release
Copyright                   : Hurtom & HQCLUB
Comment                     : 07.04.2015

Video
ID                          : 0
Format                      : MPEG-4 Visual
Format profile              : Advanced [email protected]
Format settings, BVOP       : 1
Format settings, QPel       : No
Format settings, GMC        : No warppoints
Format settings, Matrix     : Custom
Codec ID                    :
Codec ID/Hint               :
Duration                    : 1h 44mn
Bit rate                    : 1 868 Kbps
Width                       : 704 pixels
Height                      : 384 pixels
Display aspect ratio        : 1.85:1
Frame rate                  : 23.976 fps
Color space                 : YUV
Chroma subsampling          : 4:2:0
Bit depth                   : 8 bits
Scan type                   : Progressive
Compression mode            : Lossy
Bits/(Pixel*Frame)          : 0.288
Stream size                 : 1.37 GiB (74%)
Writing library             : 65

Audio #1
ID                          : 1
Format                      : AC-3
Format/Info                 : Audio Coding 3
Mode extension              : CM (complete main)
Format settings, Endianness : Big
Codec ID                    : 2000
Duration                    : 1h 44mn
Bit rate mode               : Constant
Bit rate                    : 192 Kbps
Channel(s)                  : 2 channels
Channel positions           : Front: L R
Sampling rate               : 48.0 KHz
Bit depth                   : 16 bits
Compression mode            : Lossy
Stream size                 : 144 MiB (8%)
Alignment                   : Split accross interleaves
Interleave, duration        : 42 ms (1.00 video frame)
Interleave, preload duratio : 500 ms

Audio #2
ID                          : 2
Format                      : AC-3
Format/Info                 : Audio Coding 3
Mode extension              : CM (complete main)
Format settings, Endianness : Big
Codec ID                    : 2000
Duration                    : 1h 44mn
Bit rate mode               : Constant
Bit rate                    : 448 Kbps
Channel(s)                  : 6 channels
Channel positions           : Front: L C R, Side: L R, LFE
Sampling rate               : 48.0 KHz
Bit depth                   : 16 bits
Compression mode            : Lossy
Stream size                 : 336 MiB (18%)
Alignment                   : Split accross interleaves
Interleave, duration        : 42 ms (1.00 video frame)
Interleave, preload duratio : 500 ms




Джерела та подяки: &
ріп відео, оригінальні звук та субтитри - kingsize87, sociolog_melvas (HQClub); українська доріжка - ua2004 - запис з ТБ та зведення, drakon87 - запис з ТБ; українізований постер - Воїн; фільмографії акторів та інформація про озвучення - Віктор (всі - Гуртом).


ЗАЛИШАЙТЕСЬ ЯКОМОГА ДОВШЕ НА РОЗДАЧІ!

СКАЧАВ САМ - ДАЙ СКАЧАТИ ІНШИМ


Срібний реліз (на рейтинг впливає 50% завантаженого)
 Трекер:    Зареєстрований   

Завантажити / скачати фільм українською



відео для новачків



 Зареєстрований:   2015-04-07 21:17
 Розмір:   1.84 GB 
 Оцінка фільму:   4/10 (Голосів: 19)
   
Інші релізи
Arsenfpu 
Відео Гуртом - фільмокрай
Відео Гуртом - фільмокрай


З нами з: 30.04.09
Востаннє: 04.12.16
Повідомлень: 1582

2016-08-12 19:07  
Новий показував це саме озвучення
Ваш часовий пояс: GMT + 2 Години

Нова тема   Відповісти