Завантажити та скачати торренти українською


Скотт Пілігрим проти Світу / Scott Pilgrim vs. the World (2010) 1080p 2xUkr/Eng | Sub Eng

Нові коментарі

Нова тема   Відповісти
Автор Повідомлення
Anonymous 







2015-04-06 21:50  
Скотт Пілігрим проти Світу / Scott Pilgrim vs. the World (2010) 1080p 2xUkr/Eng | Sub Eng



Українські та альтернативні постери










повнорозмірні скріншоти відкриваються по кліку (з натиснутим CTRL чи середньою кнопкою - у іншій вкладці)


Жанр: бойовик, мелодрама, комедія, молодіжний, підлітковий
Країна: США



Кінокомпанія: Universal Pictures, Marc Platt Productions, Big Talk Productions
Режисер: Едґар Райт / Edgar Wright
Актори: Майкл Сера, Мері Елізабет Уінстед, Кієран Калкін, Кріс Еванз, Анна Кендрік, Елісон Піл, Брендон Рут, Джейсон Шварцман та інші

Сюжет:
Рок-музикант Скотт Пілігрим знайшов дівчину своєї мрії. Але на його шляху стоїть складніше завдання: щоб зустрічатися з нею, Скотту доведеться перемогти її сімох злих колишніх хлопців.
Але найголовніший суперник - не ці семеро колишніх...


Рейтинг MPAA: PG-13 - дітям до 13 років перегляд не бажаний
Вікова категорія: 12+

Тривалість: 01:52:23
Якість: 1080p
Відео:
кодек:
розмір кадру: 1920 х 1040
бітрейт: 15,7 Мбіт/с [crf=17]

Аудіо # 1:
мова: українська
переклад: багатоголосий закадровий
кодек: 2.0
бітрейт: 192 кбіт/с

Аудіо # 2:
мова: українська
переклад: багатоголосий закадровий | Товариство "Три крапки"
кодек: 2.0
бітрейт: 256 кбіт/с

Аудіо # 3:
мова: англійська
переклад: оригінал
кодек: 5.1
бітрейт: 1509 кбіт/с

Субтитри:
мова: англійська
тип: програмні (м'які)
формат: *.srt

Збережено оригінальні розділи, як на Blu-ray.
MediaInfo та log
Код:
General
Unique ID                   : 247623031802249369475365224738410335705 (0xBA4A761056667C66A8BAEA98904E0DD9)
Complete name               : Scott Pilgrim vs the World (2010) [2xUkr,Eng sub.Eng] 1080p [Hurtom & HDClub].mkv
Format                      : Matroska
Format version              : Version 4 / Version 2
File size                   : 14.1 GiB
Duration                    : 1h 52mn
Overall bit rate            : 18.0 Mbps
Movie name                  : Скотт Пілігрим проти Світу / Scott Pilgrim vs the World (2010) [2xUkr,Eng sub.Eng] 1080p [Hurtom & HDClub]
Encoded date                : UTC 2015-04-06 18:06:12
Writing application         : mkvmerge v7.8.0 ('River Man') 64bit built on Mar 27 2015 16:31:37
Writing library             : libebml v1.3.1 + libmatroska v1.4.2
Attachements                : cover.jpg / xlog.txt
DURATION                    : 01:47:56.859000000
NUMBER_OF_FRAMES            : 2006
NUMBER_OF_BYTES             : 58972
_STATISTICS_WRITING_APP     : mkvmerge v7.8.0 ('River Man') 64bit built on Mar 27 2015 16:31:37
_STATISTICS_WRITING_DATE_UT : 2015-04-06 18:06:12
_STATISTICS_TAGS            : BPS DURATION NUMBER_OF_FRAMES NUMBER_OF_BYTES

Video
ID                          : 1
Format                      : AVC
Format/Info                 : Advanced Video Codec
Format profile              : [email protected]
Format settings, CABAC      : Yes
Format settings, ReFrames   : 4 frames
Codec ID                    : V_MPEG4/ISO/AVC
Duration                    : 1h 52mn
Bit rate                    : 15.7 Mbps
Width                       : 1 920 pixels
Height                      : 1 040 pixels
Display aspect ratio        : 1.85:1
Frame rate mode             : Constant
Frame rate                  : 23.976 fps
Color space                 : YUV
Chroma subsampling          : 4:2:0
Bit depth                   : 8 bits
Scan type                   : Progressive
Bits/(Pixel*Frame)          : 0.328
Stream size                 : 12.3 GiB (87%)
Title                       : Скотт Пілігрим проти Світу / Scott Pilgrim vs. the World / Скотт Пилигрим против всех (2010) 1080p [HDClub-SbR]
Writing library             : core 146 r2538kMod 121396c
Encoding settings           : cabac=1 / ref=4 / deblock=1:-2:-2 / analyse=0x3:0x133 / me=umh / subme=11 / psy=1 / fade_compensate=0.00 / psy_rd=1.00:0.00 / mixed_ref=1 / me_range=32 / chroma_me=1 / trellis=2 / 8x8dct=1 / cqm=0 / deadzone=21,11 / fast_pskip=1 / chroma_qp_offset=-2 / threads=12 / lookahead_threads=2 / sliced_threads=0 / nr=0 / decimate=1 / interlaced=0 / bluray_compat=0 / constrained_intra=0 / fgo=0 / bframes=9 / b_pyramid=2 / b_adapt=2 / b_bias=0 / direct=1 / weightb=1 / open_gop=0 / weightp=2 / keyint=250 / keyint_min=23 / scenecut=40 / intra_refresh=0 / rc_lookahead=60 / rc=crf / mbtree=0 / crf=17.0000 / qcomp=0.60 / qpmin=0 / qpmax=69 / qpstep=4 / vbv_maxrate=62500 / vbv_bufsize=78125 / crf_max=0.0 / nal_hrd=none / filler=0 / ip_ratio=1.40 / pb_ratio=1.30 / aq=1:0.80
Language                    : English
Default                     : Yes
Forced                      : No
Color primaries             : BT.709
Transfer characteristics    : BT.709
Matrix coefficients         : BT.709
Color range                 : Limited

Audio #1
ID                          : 2
Format                      : AC-3
Format/Info                 : Audio Coding 3
Mode extension              : CM (complete main)
Format settings, Endianness : Big
Codec ID                    : A_AC3
Duration                    : 1h 52mn
Bit rate mode               : Constant
Bit rate                    : 192 Kbps
Channel(s)                  : 2 channels
Channel positions           : Front: L R
Sampling rate               : 48.0 KHz
Bit depth                   : 16 bits
Compression mode            : Lossy
Stream size                 : 154 MiB (1%)
Title                       : MVO [NLO TV] 2.0 192 kbps [Hurtom-patriot2305]
Language                    : Ukrainian
Default                     : Yes
Forced                      : No

Audio #2
ID                          : 3
Format                      : AC-3
Format/Info                 : Audio Coding 3
Mode extension              : CM (complete main)
Format settings, Endianness : Big
Codec ID                    : A_AC3
Duration                    : 1h 52mn
Bit rate mode               : Constant
Bit rate                    : 256 Kbps
Channel(s)                  : 2 channels
Channel positions           : Front: L R
Sampling rate               : 48.0 KHz
Bit depth                   : 16 bits
Compression mode            : Lossy
Stream size                 : 206 MiB (1%)
Title                       : MVO [Try krapky] 2.0 256 kbps [Hurtom-Leben]
Language                    : Ukrainian
Default                     : No
Forced                      : No

Audio #3
ID                          : 4
Format                      :
Format/Info                 : Digital Theater Systems
Mode                        : 16
Format settings, Endianness : Big
Codec ID                    : A_DTS
Duration                    : 1h 52mn
Bit rate mode               : Constant
Bit rate                    : 1 509 Kbps
Channel(s)                  : 6 channels
Channel positions           : Front: L C R, Side: L R, LFE
Sampling rate               : 48.0 KHz
Bit depth                   : 24 bits
Compression mode            : Lossy
Stream size                 : 1.18 GiB (8%)
Title                       : Original 5.1 1509 kbps
Language                    : English
Default                     : No
Forced                      : No

Text
ID                          : 5
Format                      : UTF-8
Codec ID                    : S_TEXT/UTF8
Codec ID/Info               : UTF-8 Plain Text
Language                    : English
Default                     : No
Forced                      : No

Menu
00:00:00.000                : en:Chapter 1
00:07:24.318                : en:Chapter 2
00:13:14.668                : en:Chapter 3
00:20:01.241                : en:Chapter 4
00:26:01.142                : en:Chapter 5
00:30:50.223                : en:Chapter 6
00:38:52.747                : en:Chapter 7
00:45:25.681                : en:Chapter 8
00:50:18.515                : en:Chapter 9
00:53:55.065                : en:Chapter 10
00:59:15.843                : en:Chapter 11
01:03:10.328                : en:Chapter 12
01:08:05.206                : en:Chapter 13
01:14:23.750                : en:Chapter 14
01:20:19.022                : en:Chapter 15
01:27:47.512                : en:Chapter 16
01:30:43.771                : en:Chapter 17
01:39:14.198                : en:Chapter 18
01:40:49.793                : en:Chapter 19
01:48:34.466                : en:Chapter 20

Код:
avs [info]: 1920x1040p 1:1 @ 24000/1001 fps (cfr)
[info]: using SAR=1/1
[info]: using cpu capabilities: MMX2 SSE2Fast SSSE3 SSE4.2 AVX
[info]: profile High, level 4.1
[info]: frame I:1381  Avg QP:14.46  size:257788
[info]: frame P:38852 Avg QP:15.68  size:132076
[info]: frame B:121337 Avg QP:18.02  size: 66276
[info]: consecutive B-frames:  5.2%  3.5%  9.3% 11.0% 13.8% 50.3%  4.7%  0.7%  0.7%  0.7%
[info]: mb I  I16..4:  3.4% 88.3%  8.3%
[info]: mb P  I16..4:  1.7% 38.7%  2.2%  P16..4: 18.4% 24.5%  7.6%  1.1%  0.0%    skip: 5.9%
[info]: mb B  I16..4:  0.3%  5.2%  0.2%  B16..8: 38.3% 23.3%  3.8%  direct:10.7%  skip:18.3%  L0:44.4% L1:41.8% BI:13.8%
[info]: 8x8 transform intra:91.2% inter:53.6%
[info]: coded y,uvDC,uvAC intra: 94.4% 93.2% 83.5% inter: 49.0% 44.7% 16.6%
[info]: i16 v,h,dc,p: 23% 14%  6% 57%
[info]: i8 v,h,dc,ddl,ddr,vr,hd,vl,hu:  9%  8% 12% 10% 12% 11% 12% 12% 14%
[info]: i4 v,h,dc,ddl,ddr,vr,hd,vl,hu: 14% 11%  8%  8% 13% 12% 13%  9% 13%
[info]: i8c dc,h,v,p: 53% 16% 15% 16%
[info]: Weighted P-Frames: Y:5.3% UV:4.2%
[info]: ref P L0: 49.3%  8.2% 27.8% 12.6%  2.0%  0.1%
[info]: ref B L0: 83.5% 13.4%  3.1%
[info]: ref B L1: 90.6%  9.4%
[info]: kb/s:16061.18

encoded 161570 frames, 3.63 fps, 16061.18 kb/s, duration 12:22:31.03
Оригінал <----------> Ріп









Джерела та подяки: &
ріп відео, оригінальні звук та субтитри - SbR (Skazhutin) (HDClub); українська доріжка (1) - patriot2305 - зведення, MAKAPOHHIK, Sando7 - запис з ТБ; українізовані постери - bilenkuyboy, Три крапки (всі - Гуртом).


ЗАЛИШАЙТЕСЬ ЯКОМОГА ДОВШЕ НА РОЗДАЧІ!

СКАЧАВ САМ - ДАЙ СКАЧАТИ ІНШИМ


Авторський реліз (завантажувати можна без реєстрації)
 Трекер:    Зареєстрований   

Завантажити / скачати фільм українською



відео для новачків



 Зареєстрований:   2015-04-06 21:50
 Розмір:   14.14 GB 
 Оцінка фільму:   4.6/10 (Голосів: 17)
   
Ваш часовий пояс: GMT + 2 Години

Нова тема   Відповісти