Завантажити та скачати торренти українською


Пагорби мають очі. Дилогія / The Hills Have Eyes. Dilogy [Unrated] (2006-2007) 720p Ukr/Eng | Sub Eng

Нові коментарі

Нова тема   Відповісти
Автор Повідомлення
Anonymous 







2015-04-06 19:20  
Пагорби мають очі. Дилогія /
The Hills Have Eyes. Dilogy [Unrated] (2006-2007) 720p Ukr/Eng | Sub Eng




Жанр: жахи, трилер
Країна: США
Сюжет:
Внаслідок випробувань ядерної зброї на полігоні в пустелі сім'я місцевих шахтарів перетворюється у кровожерливих мутантів-канібалів, що полюють на поодиноких туристів чи людей, яким не пощастило опинитись у тій місцині.

Рейтинг MPAA: Unrated
Вікова категорія: 18+

Пагорби мають очі / The Hills Have Eyes (Unrated) (2006) 720p Ukr/Eng | Sub Eng

Пагорби мають очі / The Hills Have Eyes [Unrated] (2006) 720p Ukr/Eng | Sub Eng



Українські постери





повнорозмірні скріншоти відкриваються по кліку (з натиснутим CTRL чи середньою кнопкою - у іншій вкладці)


Жанр: жахи, трилер
Країна: США, Франція



Кінокомпанія: Craven-Maddalena Films, Dune Entertainment, Major Studio Partners
Режисер: Александр Ажа / Alexandre Aja
Актори: Аарон Стенфорд /Aaron Stanford, Кетлін Квінлен / Kathleen Quinlan, Вінесса Шоу / Vinessa Shaw, Емілі де Равін / Emilie de Ravin та інші

Сюжет:
Подорожуючи Америкою в хатинці на колесах, сімейство Картерів потрапляє в аварію та опиняється у таємничій ядерній зоні, відрізаній від цивілізації. Проте з часом Картери виявляють, що на цій начебто пустельній території мешкає кровожерна сімейка мутантів, які починають полювання на них…


Рейтинг MPAA: Unrated
Вікова категорія: 18+
Різниця між R та Unrated версіями
Обережно - спойлери, 18+


Тривалість: 01:48:24
Якість: 720p
Відео:
кодек:
розмір кадру: 1280 х 544
бітрейт: 6862 кбіт/с [crf=17.5]

Аудіо # 1:
мова: українська
переклад: двоголосий закадровий
кодек: 5.1
бітрейт: 448 кбіт/с
примітка від robotron005: По ТБ транслювали театральну версію фільму, але моментів без перекладу немає

Аудіо # 2:
мова: англійська
переклад: оригінал
кодек: 5.1
бітрейт: 1509 кбіт/с

Субтитри:
мова: англійська
тип: програмні (м'які)
формат: *.srt

Збережено оригінальні розділи, як на Blu-ray.
MediaInfo
Код:
General
Unique ID                   : 224185999221848970387370434028619175838 (0xA8A8A7248B5D9DF2BA3C9A303EFC179E)
Complete name               : The Hills Have Eyes [Unrated] (2006) [Ukr,Eng sub.Eng] 720p [Hurtom & HDClub].mkv
Format                      : Matroska
Format version              : Version 4 / Version 2
File size                   : 6.81 GiB
Duration                    : 1h 48mn
Overall bit rate            : 8 998 Kbps
Movie name                  : Пагорби мають очі / The Hills Have Eyes [Unrated] (2006) [Ukr,Eng sub.Eng] 720p [Hurtom & HDClub]
Encoded date                : UTC 2015-04-05 15:15:55
Writing application         : mkvmerge v7.8.0 ('River Man') 64bit built on Mar 27 2015 16:31:37
Writing library             : libebml v1.3.1 + libmatroska v1.4.2
DURATION                    : 01:41:30.459000000
NUMBER_OF_FRAMES            : 737
NUMBER_OF_BYTES             : 22544
_STATISTICS_WRITING_APP     : mkvmerge v7.8.0 ('River Man') 64bit built on Mar 27 2015 16:31:37
_STATISTICS_WRITING_DATE_UT : 2015-04-05 15:15:55
_STATISTICS_TAGS            : BPS DURATION NUMBER_OF_FRAMES NUMBER_OF_BYTES

Video
ID                          : 1
Format                      : AVC
Format/Info                 : Advanced Video Codec
Format profile              : [email protected]
Format settings, CABAC      : Yes
Format settings, ReFrames   : 10 frames
Codec ID                    : V_MPEG4/ISO/AVC
Duration                    : 1h 48mn
Bit rate                    : 6 862 Kbps
Width                       : 1 280 pixels
Height                      : 544 pixels
Display aspect ratio        : 2.35:1
Frame rate mode             : Constant
Frame rate                  : 23.976 fps
Color space                 : YUV
Chroma subsampling          : 4:2:0
Bit depth                   : 8 bits
Scan type                   : Progressive
Bits/(Pixel*Frame)          : 0.411
Stream size                 : 5.20 GiB (76%)
Title                       : Пагорби мають очі / The Hills Have Eyes / У холмов есть глаза [Unrated] (2006) 720p [HDClub-Neofilm]
Writing library             : core 146 r2538 121396c
Encoding settings           : cabac=1 / ref=10 / deblock=1:-3:-3 / analyse=0x3:0x113 / me=umh / subme=11 / psy=1 / psy_rd=1.00:0.05 / mixed_ref=1 / me_range=24 / chroma_me=1 / trellis=2 / 8x8dct=1 / cqm=0 / deadzone=21,11 / fast_pskip=0 / chroma_qp_offset=-3 / threads=12 / lookahead_threads=2 / sliced_threads=0 / nr=0 / decimate=1 / interlaced=0 / bluray_compat=0 / constrained_intra=0 / bframes=9 / b_pyramid=2 / b_adapt=2 / b_bias=0 / direct=3 / weightb=1 / open_gop=0 / weightp=2 / keyint=240 / keyint_min=23 / scenecut=40 / intra_refresh=0 / rc_lookahead=50 / rc=crf / mbtree=0 / crf=17.5 / qcomp=0.60 / qpmin=0 / qpmax=69 / qpstep=4 / vbv_maxrate=50000 / vbv_bufsize=62500 / crf_max=0.0 / nal_hrd=none / filler=0 / ip_ratio=1.40 / pb_ratio=1.30 / aq=1:0.60
Language                    : English
Default                     : Yes
Forced                      : No

Audio #1
ID                          : 2
Format                      : AC-3
Format/Info                 : Audio Coding 3
Mode extension              : CM (complete main)
Format settings, Endianness : Big
Codec ID                    : A_AC3
Duration                    : 1h 48mn
Bit rate mode               : Constant
Bit rate                    : 448 Kbps
Channel(s)                  : 6 channels
Channel positions           : Front: L C R, Side: L R, LFE
Sampling rate               : 48.0 KHz
Bit depth                   : 16 bits
Compression mode            : Lossy
Stream size                 : 347 MiB (5%)
Title                       : DVO [1+1] 5.1 448 kbps [Hurtom-robotron005]
Language                    : Ukrainian
Default                     : Yes
Forced                      : No

Audio #2
ID                          : 3
Format                      :
Format/Info                 : Digital Theater Systems
Mode                        : 16
Format settings, Endianness : Big
Codec ID                    : A_DTS
Duration                    : 1h 48mn
Bit rate mode               : Constant
Bit rate                    : 1 509 Kbps
Channel(s)                  : 6 channels
Channel positions           : Front: L C R, Side: L R, LFE
Sampling rate               : 48.0 KHz
Bit depth                   : 24 bits
Compression mode            : Lossy
Stream size                 : 1.14 GiB (17%)
Title                       : Original 5.1 1509 kbps
Language                    : English
Default                     : No
Forced                      : No

Text
ID                          : 4
Format                      : UTF-8
Codec ID                    : S_TEXT/UTF8
Codec ID/Info               : UTF-8 Plain Text
Language                    : English
Default                     : No
Forced                      : No

Menu
00:00:00.000                : en:Chapter 01
00:02:25.019                : en:Chapter 02
00:04:41.072                : en:Chapter 03
00:08:50.279                : en:Chapter 04
00:16:44.461                : en:Chapter 05
00:19:34.381                : en:Chapter 06
00:25:36.326                : en:Chapter 07
00:28:24.661                : en:Chapter 08
00:34:25.229                : en:Chapter 09
00:37:43.052                : en:Chapter 10
00:43:47.958                : en:Chapter 11
00:49:33.095                : en:Chapter 12
01:00:01.639                : en:Chapter 13
01:02:44.761                : en:Chapter 14
01:07:55.696                : en:Chapter 15
01:13:32.032                : en:Chapter 16
01:16:47.060                : en:Chapter 17
01:20:27.405                : en:Chapter 18
01:24:34.402                : en:Chapter 19
01:28:06.239                : en:Chapter 20
01:32:55.695                : en:Chapter 21
01:37:38.519                : en:Chapter 22
01:42:05.285                : en:Chapter 23
01:44:18.043                : en:Chapter 24

Пагорби мають очі 2 / The Hills Have Eyes II (Unrated) (2007) 720p Ukr/Eng | Sub Eng

Пагорби мають очі 2 / The Hills Have Eyes II [Unrated] (2007) 720p Ukr/Eng | Sub Eng



Український постер



Жанр: жахи, трилер
Країна: США, Франція



Кінокомпанія: Fox Atomic, Craven-Maddalena Films, Dune Entertainment
Режисер: Мартін Веіз / Martin Weisz
Актори: Майкл МакМілліан / Michael McMillian, Джессіка Строуп / Jessica Stroup, Джейкоб Варґас / Jacob Vargas, Даніела Алонсо / Daniella Alonso та інші

Сюжет:
Під час навчань солдати Національної гвардії США роблять привал на прикордонній заставі в Нью-Мексико і несподівано виявляють, що там нікого немає. Отримавши сигнал тривоги з віддаленого пагорба, група військових вирушає в той район, щоб допомогти людям у біді. Рятувальники не знають, що це місце колись відвідала сумно відома сім'я Картерів і що їх чекають кровожерні мутанти-канібали…


Рейтинг MPAA: Unrated
Вікова категорія: 18+
Різниця між R та Unrated версіями
Обережно - спойлери, 18+


Тривалість: 01:29:58
Якість: 720p
Відео:
кодек:
розмір кадру: 1280 х 544
бітрейт: 4572 кбіт/с [crf=16]

Аудіо # 1:
мова: українська
переклад: двоголосий закадровий
кодек: 5.1
бітрейт: 448 кбіт/с
примітка від robotron005: По ТБ транслювали театральну версію фільму, присутні кілька незначних слів без перекладу

Аудіо # 2:
мова: англійська
переклад: оригінал
кодек: 5.1
бітрейт: 1509 кбіт/с

Субтитри # 1-2:
мова: англійська (форсовані, повні)
тип: програмні (м'які)
формат: *.srt

Збережено оригінальні розділи, як на Blu-ray.
MediaInfo
Код:
General
Unique ID                   : 177849720383307287638743724134796089425 (0x85CC9C36A358D069B8C806DDECFFD851)
Complete name               : The Hills Have Eyes II [Unrated] (2007) [Ukr,Eng sub.Eng] 720p [Hurtom & HDClub].mkv
Format                      : Matroska
Format version              : Version 4 / Version 2
File size                   : 4.19 GiB
Duration                    : 1h 29mn
Overall bit rate            : 6 661 Kbps
Movie name                  : Пагорби мають очі 2 / The Hills Have Eyes II [Unrated] (2007) [Ukr,Eng sub.Eng] 720p [Hurtom & HDClub]
Encoded date                : UTC 2015-04-05 15:58:02
Writing application         : mkvmerge v7.8.0 ('River Man') 64bit built on Mar 27 2015 16:31:37
Writing library             : libebml v1.3.1 + libmatroska v1.4.2
DURATION                    : 01:22:25.566000000
NUMBER_OF_FRAMES            : 887
NUMBER_OF_BYTES             : 30488
_STATISTICS_WRITING_APP     : mkvmerge v7.8.0 ('River Man') 64bit built on Mar 27 2015 16:31:37
_STATISTICS_WRITING_DATE_UT : 2015-04-05 15:58:02
_STATISTICS_TAGS            : BPS DURATION NUMBER_OF_FRAMES NUMBER_OF_BYTES

Video
ID                          : 1
Format                      : AVC
Format/Info                 : Advanced Video Codec
Format profile              : [email protected]
Format settings, CABAC      : Yes
Format settings, ReFrames   : 10 frames
Codec ID                    : V_MPEG4/ISO/AVC
Duration                    : 1h 29mn
Bit rate                    : 4 572 Kbps
Width                       : 1 280 pixels
Height                      : 544 pixels
Display aspect ratio        : 2.35:1
Frame rate mode             : Constant
Frame rate                  : 23.976 fps
Color space                 : YUV
Chroma subsampling          : 4:2:0
Bit depth                   : 8 bits
Scan type                   : Progressive
Bits/(Pixel*Frame)          : 0.274
Stream size                 : 2.87 GiB (69%)
Title                       : Пагорби мають очі 2 / The Hills Have Eyes II / У холмов есть глаза 2 [Unrated] (2007) 720p [HDClub-Neofilm]
Writing library             : core 146 r2538 121396c
Encoding settings           : cabac=1 / ref=10 / deblock=1:-3:-3 / analyse=0x3:0x113 / me=umh / subme=11 / psy=1 / psy_rd=1.00:0.05 / mixed_ref=1 / me_range=24 / chroma_me=1 / trellis=2 / 8x8dct=1 / cqm=0 / deadzone=21,11 / fast_pskip=0 / chroma_qp_offset=-3 / threads=12 / lookahead_threads=2 / sliced_threads=0 / nr=0 / decimate=1 / interlaced=0 / bluray_compat=0 / constrained_intra=0 / bframes=9 / b_pyramid=2 / b_adapt=2 / b_bias=0 / direct=3 / weightb=1 / open_gop=0 / weightp=2 / keyint=240 / keyint_min=23 / scenecut=40 / intra_refresh=0 / rc_lookahead=50 / rc=crf / mbtree=0 / crf=16.0 / qcomp=0.60 / qpmin=0 / qpmax=69 / qpstep=4 / vbv_maxrate=50000 / vbv_bufsize=62500 / crf_max=0.0 / nal_hrd=none / filler=0 / ip_ratio=1.40 / pb_ratio=1.30 / aq=1:0.60
Language                    : English
Default                     : Yes
Forced                      : No

Audio #1
ID                          : 2
Format                      : AC-3
Format/Info                 : Audio Coding 3
Mode extension              : CM (complete main)
Format settings, Endianness : Big
Codec ID                    : A_AC3
Duration                    : 1h 29mn
Bit rate mode               : Constant
Bit rate                    : 448 Kbps
Channel(s)                  : 6 channels
Channel positions           : Front: L C R, Side: L R, LFE
Sampling rate               : 48.0 KHz
Bit depth                   : 16 bits
Compression mode            : Lossy
Stream size                 : 288 MiB (7%)
Title                       : DVO [1+1] 5.1 448 kbps [Hurtom-robotron005]
Language                    : Ukrainian
Default                     : Yes
Forced                      : No

Audio #2
ID                          : 3
Format                      :
Format/Info                 : Digital Theater Systems
Mode                        : 16
Format settings, Endianness : Big
Codec ID                    : A_DTS
Duration                    : 1h 29mn
Bit rate mode               : Constant
Bit rate                    : 1 509 Kbps
Channel(s)                  : 6 channels
Channel positions           : Front: L C R, Side: L R, LFE
Sampling rate               : 48.0 KHz
Bit depth                   : 24 bits
Compression mode            : Lossy
Stream size                 : 971 MiB (23%)
Title                       : Original 5.1 1509 kbps
Language                    : English
Default                     : No
Forced                      : No

Text #1
ID                          : 4
Format                      : UTF-8
Codec ID                    : S_TEXT/UTF8
Codec ID/Info               : UTF-8 Plain Text
Title                       : Forced
Language                    : English
Default                     : No
Forced                      : No

Text #2
ID                          : 5
Format                      : UTF-8
Codec ID                    : S_TEXT/UTF8
Codec ID/Info               : UTF-8 Plain Text
Title                       : Full
Language                    : English
Default                     : No
Forced                      : No

Menu
00:00:00.000                : en:Chapter 01
00:07:17.061                : en:Chapter 02
00:11:16.133                : en:Chapter 03
00:17:22.583                : en:Chapter 04
00:22:46.239                : en:Chapter 05
00:26:11.945                : en:Chapter 06
00:32:23.691                : en:Chapter 07
00:38:52.788                : en:Chapter 08
00:46:19.443                : en:Chapter 09
00:50:49.588                : en:Chapter 10
00:56:52.867                : en:Chapter 11
01:03:26.344                : en:Chapter 12
01:08:08.292                : en:Chapter 13
01:15:44.414                : en:Chapter 14
01:19:21.631                : en:Chapter 15
01:24:42.118                : en:Chapter 16


Джерела та подяки: &
ріп відео, оригінальні звук та субтитри - Neofilm (HDClub); українські доріжки - robotron005 - зведення, olgaya - запис з ТБ; українізовані постери - hellforces (всі - Гуртом).


ЗАЛИШАЙТЕСЬ ЯКОМОГА ДОВШЕ НА РОЗДАЧІ!

СКАЧАВ САМ - ДАЙ СКАЧАТИ ІНШИМ


Бронзовий реліз (на рейтинг впливає 75% завантаженого)
 Трекер:    Зареєстрований   

Завантажити / скачати фільм українською



відео для новачків



 Зареєстрований:   2015-04-06 19:20
 Розмір:   11 GB 
 Оцінка фільму:   4.2/10 (Голосів: 18)
   
Leshchyshyn 
VIP


З нами з: 20.07.09
Востаннє: 02.12.16
Повідомлень: 470

2015-04-27 18:30  
Перший фільм мені сподобався більше ніж другий.
Для любителів жанру на кшталт "Поворот не туди" - перша частина повинна сподобатись)

Ваш часовий пояс: GMT + 2 Години

Нова тема   Відповісти