Завантажити та скачати торренти українською


Гуцульська планета - Музика гір (2014) [FLAC] | Folk / Instrumental

Нові коментарі

Нова тема   Відповісти
Автор Повідомлення
ssTAss 
Модератор музики


З нами з: 05.07.08
Востаннє: 09.12.16
Повідомлень: 10948

2015-04-05 17:57  
Гуцульська планета - Музика гір (2014) [FLAC] | Folk / Instrumental



Стиль: Ethno Folk Instrumental
Країна, місто: Україна, Коломия, Верховина, Чернівці; Канада, Торонто
Видавець: ТОВ "Ігри розуму"
Виконавці:
Гурт "Гуцульська планета"

Пако Лувіано - бас
Ахмед Мітчел - ударні
Алекс Северинець - гітара
Василь Попадюк - скрипка
Стан Фомін - піано, звуковий дизайн
Народники

Михайло Тафійчук - сопілка, ріжок, дримба, трембіта
Юрій Тафійчук - сопілка, динцівка
Володимир Тірон - цимбали
Церковний хор зраму Преображення Господнього - диригент Світлана Гаргат
Елла Неміш, Тетяна Каплан - вокал
Ярослав Шийко - гітара
Національний симфонічний оркестр України

Володимир Сіренко - диригент
Олександр Горностай - директор
Ідея - Михайло Балух та Василь Попадюк
Адаптація, аранжування та оригінальні композиції - Стан Фомін
Пісні:
    01. Інтро
    02. Трембіта
    03. В'язанка
    04. Ой зацвіли фіалочки
    05. Весела Коломийка
    06. Мелодія сопілки
    07. Танець "Гуцулка"
    08. Дзеркало життя
    09. Тафійчук. Верховинська дуда
    10. Фантазія Аркан
    11. Ґаннечка
    12. Гордий гуцул
    13. Звук дримби
    14. Бонус
log
Exact Audio Copy V1.0 beta 1 from 15. November 2010

EAC extraction logfile from 18. October 2014, 0:00

- / Hutsul Planet

Used drive : PLDS DVD+-RW DS-8A5SH Adapter: 0 ID: 1

Read mode : Secure
Utilize accurate stream : Yes
Defeat audio cache : Yes
Make use of C2 pointers : No

Read offset correction : 6
Overread into Lead-In and Lead-Out : Yes
Fill up missing offset samples with silence : Yes
Delete leading and trailing silent blocks : No
Null samples used in CRC calculations : Yes
Used interface : Native Win32 interface for Win NT & 2000
Gap handling : Appended to previous track

Used output format : Internal WAV Routines
Sample format : 44.100 Hz; 16 Bit; Stereo

TOC of the extracted CD

Track | Start | Length | Start sector | End sector
---------------------------------------------------------
1 | 0:00.00 | 2:08.38 | 0 | 9637
2 | 2:08.38 | 3:45.26 | 9638 | 26538
3 | 5:53.64 | 5:11.69 | 26539 | 49932
4 | 11:05.58 | 2:10.73 | 49933 | 59755
5 | 13:16.56 | 3:58.59 | 59756 | 77664
6 | 17:15.40 | 3:34.74 | 77665 | 93788
7 | 20:50.39 | 2:43.64 | 93789 | 106077
8 | 23:34.28 | 3:54.14 | 106078 | 123641
9 | 27:28.42 | 3:42.47 | 123642 | 140338
10 | 31:11.14 | 3:38.39 | 140339 | 156727
11 | 34:49.53 | 3:57.02 | 156728 | 174504
12 | 38:46.55 | 3:19.02 | 174505 | 189431
13 | 42:05.57 | 6:24.62 | 189432 | 218293
14 | 48:30.44 | 3:59.36 | 218294 | 236254

Track 1

Filename F:\CD_lossless\Hutsul planet\Introracknr2rtist- Introitle.wav

Pre-gap length 0:00:02.00

Peak level 100.0 %
Extraction speed 1.8 X
Track quality 99.9 %
Test CRC DC0C715E
Copy CRC DC0C715E
Track not present in AccurateRip database
Copy OK

Track 2

Filename F:\CD_lossless\Hutsul planet\Trembitaracknr2rtist- Trembitaitle.wav

Peak level 99.8 %
Extraction speed 2.7 X
Track quality 100.0 %
Test CRC C7442544
Copy CRC C7442544
Track not present in AccurateRip database
Copy OK

Track 3

Filename F:\CD_lossless\Hutsul planet\Medleyracknr2rtist- Medleyitle.wav

Peak level 99.8 %
Extraction speed 3.2 X
Track quality 100.0 %
Test CRC 76730697
Copy CRC 76730697
Track not present in AccurateRip database
Copy OK

Track 4

Filename F:\CD_lossless\Hutsul planet\Violet Blossomracknr2rtist- Violet Blossomitle.wav

Peak level 99.0 %
Extraction speed 2.9 X
Track quality 100.0 %
Test CRC D43088D8
Copy CRC D43088D8
Track not present in AccurateRip database
Copy OK

Track 5

Filename F:\CD_lossless\Hutsul planet\Funky Kolomyikaracknr2rtist- Funky Kolomyikaitle.wav

Peak level 99.8 %
Extraction speed 3.4 X
Track quality 100.0 %
Test CRC 1B8D414E
Copy CRC 1B8D414E
Track not present in AccurateRip database
Copy OK

Track 6

Filename F:\CD_lossless\Hutsul planet\Sopilka Songracknr2rtist- Sopilka Songitle.wav

Copy aborted

Track 7

Filename F:\CD_lossless\Hutsul planet\Hutsulka Rocksracknr2rtist- Hutsulka Rocksitle.wav

Suspicious position 0:00:05

Peak level 99.8 %
Extraction speed 0.8 X
Track quality 99.3 %
Test CRC 1723F6B0
Copy CRC 32C5E160
Track not present in AccurateRip database
Copy finished

Track 8

Filename F:\CD_lossless\Hutsul planet\Gannechkaracknr2rtist- Gannechkaitle.wav

Suspicious position 0:00:53

Peak level 98.6 %
Extraction speed 1.1 X
Track quality 99.4 %
Test CRC ED1C9DCB
Copy CRC D56477E6
Track not present in AccurateRip database
Copy finished

Track 9

Filename F:\CD_lossless\Hutsul planet\Mirrors of Liferacknr2rtist- Mirrors of Lifeitle.wav

Peak level 100.0 %
Extraction speed 4.1 X
Track quality 100.0 %
Test CRC E90CD14B
Copy CRC E90CD14B
Track not present in AccurateRip database
Copy OK

Track 10

Filename F:\CD_lossless\Hutsul planet\Tafiichuk's Highland Dudaracknr2rtist- Tafiichuk's Highland Dudaitle.wav

Peak level 96.2 %
Extraction speed 4.2 X
Track quality 100.0 %
Test CRC 16585DE9
Copy CRC 16585DE9
Track not present in AccurateRip database
Copy OK

Track 11

Filename F:\CD_lossless\Hutsul planet\Arkan Fantasyracknr2rtist- Arkan Fantasyitle.wav

Peak level 100.0 %
Extraction speed 4.5 X
Track quality 100.0 %
Test CRC 54D4C09C
Copy CRC 54D4C09C
Track not present in AccurateRip database
Copy OK

Track 12

Filename F:\CD_lossless\Hutsul planet\Proud to be Hutsulracknr2rtist- Proud to be Hutsulitle.wav

Suspicious position 0:02:20
Suspicious position 0:02:23
Suspicious position 0:02:26
Suspicious position 0:02:40
Suspicious position 0:02:52
Suspicious position 0:02:55
Suspicious position 0:02:58

Peak level 100.0 %
Extraction speed 0.3 X
Track quality 98.1 %
Copy CRC D40E3BA4
Track not present in AccurateRip database
Copy finished

Track 13

Filename F:\CD_lossless\Hutsul planet\Drymba Songracknr2rtist- Drymba Songitle.wav

Suspicious position 0:00:02
Suspicious position 0:00:53
Suspicious position 0:01:10
Suspicious position 0:01:28
Suspicious position 0:03:19

Peak level 99.4 %
Extraction speed 0.8 X
Track quality 98.9 %
Test CRC BFDB108A
Copy CRC B626E3A2
Track not present in AccurateRip database
Copy finished

Track 14

Filename F:\CD_lossless\Hutsul planet\Bonus Trackracknr2rtist- Bonus Trackitle.wav

Copy aborted

12 track(s) not present in the AccurateRip database
2 track(s) canceled

No tracks could be verified as accurate

There were errors

End of status report

==== Log checksum 426789436D6D9A1A5E22B6173401F042CB7E9DC6BF2F370C430C29F4C9589B60 ====

------------------------------------------------------------

Exact Audio Copy V1.0 beta 1 from 15. November 2010

EAC extraction logfile from 18. October 2014, 21:58

- / Hutsul Planet

Used drive : PLDS DVD+-RW DS-8A5SH Adapter: 0 ID: 1

Read mode : Secure
Utilize accurate stream : Yes
Defeat audio cache : Yes
Make use of C2 pointers : No

Read offset correction : 6
Overread into Lead-In and Lead-Out : Yes
Fill up missing offset samples with silence : Yes
Delete leading and trailing silent blocks : No
Null samples used in CRC calculations : Yes
Used interface : Native Win32 interface for Win NT & 2000
Gap handling : Not detected, thus appended to previous track

Used output format : Internal WAV Routines
Sample format : 44.100 Hz; 16 Bit; Stereo

TOC of the extracted CD

Track | Start | Length | Start sector | End sector
---------------------------------------------------------
1 | 0:00.00 | 2:08.38 | 0 | 9637
2 | 2:08.38 | 3:45.26 | 9638 | 26538
3 | 5:53.64 | 5:11.69 | 26539 | 49932
4 | 11:05.58 | 2:10.73 | 49933 | 59755
5 | 13:16.56 | 3:58.59 | 59756 | 77664
6 | 17:15.40 | 3:34.74 | 77665 | 93788
7 | 20:50.39 | 2:43.64 | 93789 | 106077
8 | 23:34.28 | 3:54.14 | 106078 | 123641
9 | 27:28.42 | 3:42.47 | 123642 | 140338
10 | 31:11.14 | 3:38.39 | 140339 | 156727
11 | 34:49.53 | 3:57.02 | 156728 | 174504
12 | 38:46.55 | 3:19.02 | 174505 | 189431
13 | 42:05.57 | 6:24.62 | 189432 | 218293
14 | 48:30.44 | 3:59.36 | 218294 | 236254

Track 6

Filename F:\CD_lossless\Hutsul planet\Sopilka Songracknr2rtist- Sopilka Songitle.wav

Suspicious position 0:03:30 - 0:03:31
Suspicious position 0:03:33

Peak level 99.8 %
Extraction speed 0.2 X
Track quality 98.7 %
Copy CRC 48205D39
Track not present in AccurateRip database
Copy finished

None of the tracks are present in the AccurateRip database

There were errors

End of status report

==== Log checksum B60B0BD15C9E4A2B7DFA2B67DD57E13A4C8F15D33B82101D88CE4F51C96E9E93 ====

------------------------------------------------------------

Exact Audio Copy V1.0 beta 1 from 15. November 2010

EAC extraction logfile from 24. October 2014, 23:07

- / Hutsul Planet

Used drive : PLDS DVD+-RW DS-8A5SH Adapter: 0 ID: 1

Read mode : Burst

Read offset correction : 6
Overread into Lead-In and Lead-Out : Yes
Fill up missing offset samples with silence : Yes
Delete leading and trailing silent blocks : No
Null samples used in CRC calculations : Yes
Used interface : Native Win32 interface for Win NT & 2000
Gap handling : Not detected, thus appended to previous track

Used output format : Internal WAV Routines
Sample format : 44.100 Hz; 16 Bit; Stereo

TOC of the extracted CD

Track | Start | Length | Start sector | End sector
---------------------------------------------------------
1 | 0:00.00 | 2:08.38 | 0 | 9637
2 | 2:08.38 | 3:45.26 | 9638 | 26538
3 | 5:53.64 | 5:11.69 | 26539 | 49932
4 | 11:05.58 | 2:10.73 | 49933 | 59755
5 | 13:16.56 | 3:58.59 | 59756 | 77664
6 | 17:15.40 | 3:34.74 | 77665 | 93788
7 | 20:50.39 | 2:43.64 | 93789 | 106077
8 | 23:34.28 | 3:54.14 | 106078 | 123641
9 | 27:28.42 | 3:42.47 | 123642 | 140338
10 | 31:11.14 | 3:38.39 | 140339 | 156727
11 | 34:49.53 | 3:57.02 | 156728 | 174504
12 | 38:46.55 | 3:19.02 | 174505 | 189431
13 | 42:05.57 | 6:24.62 | 189432 | 218293
14 | 48:30.44 | 3:59.36 | 218294 | 236254

Track 14

Filename F:\CD_lossless\Hutsul planet\14 - - Bonus Track.wav

Timing problem 0:00:07 - 0:00:14
Timing problem 0:00:18 - 0:00:23
Timing problem 0:00:25
Timing problem 0:00:28
Timing problem 0:00:34
Timing problem 0:00:40
Timing problem 0:00:44
Timing problem 0:01:15
Timing problem 0:01:27
Suspicious position 0:03:59

Peak level 49.9 %
Extraction speed 7.2 X
Copy CRC E894DBC1
Track not present in AccurateRip database
Copy finished

None of the tracks are present in the AccurateRip database

No errors occurred

End of status report

==== Log checksum D01BA27722BEF54061A7CF1A5929E2DAE2544123FFB0E4298F4E57B59180B2E3 ====
fooCDtect
fooCDtect - foobar2000 + auCDtect, baralgin.

auCDtect: CD records authenticity detector, version 0.8.2
Copyright (c) 2004 Oleg Berngardt. All rights reserved.
Copyright (c) 2004 Alexander Djourik. All rights reserved.

mode: 0

===========================================
Track: 01 - Intro
Quality: CDDA 100%
===========================================
Track: 02 - Trembita
Quality: CDDA 100%
===========================================
Track: 03 - Medley
Quality: CDDA 100%
===========================================
Track: 04 - Violet Blossom
Quality: CDDA 99%
===========================================
Track: 05 - Funky Kolomyika
Quality: CDDA 100%
===========================================
Track: 06 - Sopilka Song
Quality: CDDA 100%
===========================================
Track: 07 - Hutsulka Rocks
Quality: CDDA 100%
===========================================
Track: 08 - Gannechka
Quality: CDDA 100%
===========================================
Track: 09 - Mirrors of Life
Quality: CDDA 100%
===========================================
Track: 10 - Tafiichuk's Highland Duda
Quality: CDDA 100%
===========================================
Track: 11 - Arkan Fantasy
Quality: CDDA 100%
===========================================
Track: 12 - Proud to be Hutsul
Quality: CDDA 100%
===========================================
Track: 13 - Drymba Song
Quality: CDDA 100%
===========================================
Track: 14 - Bonus Track
Quality: CDDA 87%
===========================================
Тривалість: 00:52:30
Мова: українська, відсутня (1,3,6,7,10,11,13)
Аудіо-кодек: FLAC
Бітрейт: 728 - 1095 кб/с
Джерело: інтернет, фото буклету DidPanac
Додаткова інформація:
Гуцульська планета — велика культура маленької народності, спогад про предків і мрія, що минула культура не згубиться з часом, матиме майбутнє і в сучасній інтерпретації. Джазово-ексцентричне сміливе мікшування, імпровізація, автентичний спів і звучання народних інструментів — живе втілення гуцульського ладу сьогодні.


Якщо Ви справді бажаєте підтримати українське - після прослуховування, якщо музика вам сподобалась,
придбайте ліцензійний диск.
Підтримаймо вітчизняних виконавців!


Срібний реліз (на рейтинг впливає 50% завантаженого)
 Трекер:    Зареєстрований   

Завантажити / скачати українську музику



відео для новачків



 Зареєстрований:   2015-04-05 17:57
 Розмір:   344 MB 
 Оцінка музики:   7.8/10 (Голосів: 12)
   
ssTAss 
Модератор музики


З нами з: 05.07.08
Востаннє: 09.12.16
Повідомлень: 10948

2015-04-05 17:58  
Antoni Gold777 
Новенький


З нами з: 24.09.14
Востаннє: 13.06.16
Повідомлень: 3

2016-05-29 22:01  
Суперський саунд!!! Дякую
Ваш часовий пояс: GMT + 2 Години

Нова тема   Відповісти