Завантажити та скачати торренти українською


22 кулі. Безсмертний / L'immortel (2010) 720p Ukr/Fra | Sub Eng

Нові коментарі

Нова тема   Відповісти
Автор Повідомлення
Anonymous 







2015-04-03 21:10  
22 кулі. Безсмертний / L'immortel (2010) 720p Ukr/Fra | Sub Eng



Оригінальні постери




скріншоти повнорозмірні по кліку (з натиснутим CTRL чи середньою кнопкою - у іншій вкладці)


Жанр: бойовик, драма, кримінальний
Країна: Франція



Кінокомпанія: EuropaCorp, TF1 Films Production, Marie Coline Films, SMTS, Canal+, CinéCinéma, Sofica Europacorp
Режисер: Рішар Беррі / Richard Berry
Актори: Жан Рено / Jean Reno, Марина Фоіс / Marina Foïs, Кад Мерад / Kad Merad, Рішар Беррі / Richard Berry, Жан-Пьєр Дарруссен / Jean-Pierre Darroussin, Гійом Гуї / Guillaume Gouix, Джоі Старр / Joey Starr та інші

Сюжет:
Шарль Матей - один з хрещених батьків Марселя. Він вирішує відійти від справ і жити спокійно, адже йому чимало років, а за спиною дуже бурхливе життя. Але компаньйони проти такого повороту подій. На нього здійснюють жорстокий замах, не залишаючи йому жодного шансу. Розстріляного колегами впритул, Шарля доставляють у лікарню і витягають з його тіла 22 кулі... Але якимось дивом він залишається живий. Тепер він прагне помститися своїм колишнім друзям. І його помста буде не менш кривавою і безжальною.


Вікова категорія: 18+

Тривалість: 01:57:00
Якість: 720p
Відео:
кодек:
розмір кадру: 1280 x 546
бітрейт: 6458 кбіт/с [crf=16.5]

Аудіо # 1:
мова: українська
переклад: багатоголосе закадрове - Творче об’єднання «Дія»
кодек: 5.1
бітрейт: 384 кбіт/с
Інформація про озвучення

Фільм озвучено Творчим об’єднанням «Дія» для Top Film Distribution у 2010 році
Переклад: Сергій Ковальчук
Ролі озвучили: Жан Рено — Андрій Самінін, Кад Мерад — Михайло Жонін, Дмитро Завадський, Євген Пашин, Ольга Радчук, титри і назву фільму — Георгій Гавриленко та інші.

З цією ж озвучкою фільм транслювався по ICTV
Аудіо # 2:
мова: французька
переклад: оригінал
кодек: 5.1
бітрейт: 1509 кбіт/с

Субтитри:
мова: англійська
тип: програмні (м'які)
формат: *.srt

Збережено оригінальні розділи, як на Blu-ray.
MediaInfo та log
Код:
General
Unique ID                   : 181933269711592578134565968435201765789 (0x88DF12BD5A22586C8D2903A939E0F19D)
Complete name               : L'immortel (2010) [Ukr,Fra sub.Eng] 720p [Hurtom & HDClub].mkv
Format                      : Matroska
Format version              : Version 4 / Version 2
File size                   : 6.96 GiB
Duration                    : 1h 57mn
Overall bit rate            : 8 521 Kbps
Movie name                  : 22 кулі. Безсмертний / L'immortel (2010) [Ukr,Fra sub.Eng] 720p [Hurtom & HDClub]
Encoded date                : UTC 2015-04-03 09:21:27
Writing application         : mkvmerge v7.8.0 ('River Man') 64bit built on Mar 27 2015 16:31:37
Writing library             : libebml v1.3.1 + libmatroska v1.4.2
Attachements                : cover.jpg / xlog.txt
DURATION                    : 01:49:30.502000000
NUMBER_OF_FRAMES            : 1197
NUMBER_OF_BYTES             : 38422
_STATISTICS_WRITING_APP     : mkvmerge v7.8.0 ('River Man') 64bit built on Mar 27 2015 16:31:37
_STATISTICS_WRITING_DATE_UT : 2015-04-03 09:21:27
_STATISTICS_TAGS            : BPS DURATION NUMBER_OF_FRAMES NUMBER_OF_BYTES

Video
ID                          : 1
Format                      : AVC
Format/Info                 : Advanced Video Codec
Format profile              : [email protected]
Format settings, CABAC      : Yes
Format settings, ReFrames   : 11 frames
Codec ID                    : V_MPEG4/ISO/AVC
Duration                    : 1h 57mn
Bit rate                    : 6 458 Kbps
Width                       : 1 280 pixels
Height                      : 546 pixels
Display aspect ratio        : 2.35:1
Frame rate mode             : Constant
Frame rate                  : 24.000 fps
Color space                 : YUV
Chroma subsampling          : 4:2:0
Bit depth                   : 8 bits
Scan type                   : Progressive
Bits/(Pixel*Frame)          : 0.385
Stream size                 : 5.28 GiB (76%)
Title                       : 22 кулі. Безсмертний / L'immortel / 22 пули: Бессмертный (2010) 720p [HDCLUB-SbR/Skazhutin]
Writing library             : core 146 r2538kMod 121396c
Encoding settings           : cabac=1 / ref=11 / deblock=1:-2:-2 / analyse=0x3:0x133 / me=umh / subme=11 / psy=1 / fade_compensate=0.00 / psy_rd=1.00:0.00 / mixed_ref=1 / me_range=32 / chroma_me=1 / trellis=2 / 8x8dct=1 / cqm=0 / deadzone=21,11 / fast_pskip=1 / chroma_qp_offset=-2 / threads=12 / lookahead_threads=2 / sliced_threads=0 / nr=0 / decimate=1 / interlaced=0 / bluray_compat=0 / constrained_intra=0 / fgo=0 / bframes=8 / b_pyramid=2 / b_adapt=2 / b_bias=0 / direct=1 / weightb=1 / open_gop=0 / weightp=2 / keyint=250 / keyint_min=24 / scenecut=40 / intra_refresh=0 / rc_lookahead=60 / rc=crf / mbtree=0 / crf=16.5000 / qcomp=0.70 / qpmin=0 / qpmax=69 / qpstep=4 / vbv_maxrate=62500 / vbv_bufsize=78125 / crf_max=0.0 / nal_hrd=none / filler=0 / ip_ratio=1.40 / pb_ratio=1.30 / aq=1:0.80
Language                    : French
Default                     : Yes
Forced                      : No
Color primaries             : BT.709
Transfer characteristics    : BT.709
Matrix coefficients         : BT.709
Color range                 : Limited

Audio #1
ID                          : 2
Format                      : AC-3
Format/Info                 : Audio Coding 3
Mode extension              : CM (complete main)
Format settings, Endianness : Big
Codec ID                    : A_AC3
Duration                    : 1h 57mn
Bit rate mode               : Constant
Bit rate                    : 384 Kbps
Channel(s)                  : 6 channels
Channel positions           : Front: L C R, Side: L R, LFE
Sampling rate               : 48.0 KHz
Bit depth                   : 16 bits
Compression mode            : Lossy
Stream size                 : 321 MiB (5%)
Title                       : MVO [DVD-R5] 5.1 384 kbps
Language                    : Ukrainian
Default                     : Yes
Forced                      : No

Audio #2
ID                          : 3
Format                      :
Format/Info                 : Digital Theater Systems
Mode                        : 16
Format settings, Endianness : Big
Codec ID                    : A_DTS
Duration                    : 1h 57mn
Bit rate mode               : Constant
Bit rate                    : 1 509 Kbps
Channel(s)                  : 6 channels
Channel positions           : Front: L C R, Side: L R, LFE
Sampling rate               : 48.0 KHz
Bit depth                   : 24 bits
Compression mode            : Lossy
Stream size                 : 1.23 GiB (18%)
Title                       : Original 5.1 1509 kbps
Language                    : French
Default                     : No
Forced                      : No

Text
ID                          : 4
Format                      : UTF-8
Codec ID                    : S_TEXT/UTF8
Codec ID/Info               : UTF-8 Plain Text
Language                    : English
Default                     : No
Forced                      : No

Menu
00:00:00.000                : en:Chapter 1
00:13:23.625                : en:Chapter 2
00:23:47.625                : en:Chapter 3
00:30:23.833                : en:Chapter 4
00:41:26.708                : en:Chapter 5
00:52:37.500                : en:Chapter 6
01:00:03.833                : en:Chapter 7
01:09:16.250                : en:Chapter 8
01:19:15.125                : en:Chapter 9
01:26:05.250                : en:Chapter 10
01:36:44.125                : en:Chapter 11
01:46:47.000                : en:Chapter 12

Код:
raw [info]: 1280x546p 1:1 @ 24/1 fps (cfr)
[info]: using SAR=1/1
[info]: using cpu capabilities: MMX2 SSE2Fast SSSE3 SSE4.2 AVX
[info]: profile High, level 4.1
[info]: frame I:1596  Avg QP:14.37  size:109210
[info]: frame P:38166 Avg QP:16.15  size: 56638
[info]: frame B:128670 Avg QP:18.42  size: 27042
[info]: consecutive B-frames:  2.8%  4.1% 10.0% 17.0% 14.5% 41.3%  5.6%  2.6%  2.2%
[info]: mb I  I16..4:  5.7% 79.6% 14.7%
[info]: mb P  I16..4:  0.6% 27.9%  2.4%  P16..4: 19.8% 26.2% 12.8%  2.1%  0.1%    skip: 8.0%
[info]: mb B  I16..4:  0.1%  4.8%  0.4%  B16..8: 35.1% 24.3%  5.7%  direct: 8.4%  skip:21.2%  L0:43.8% L1:41.9% BI:14.3%
[info]: 8x8 transform intra:89.4% inter:58.3%
[info]: coded y,uvDC,uvAC intra: 93.2% 88.2% 71.1% inter: 47.2% 32.2% 4.0%
[info]: i16 v,h,dc,p: 40% 12%  6% 41%
[info]: i8 v,h,dc,ddl,ddr,vr,hd,vl,hu: 10%  8% 12%  9% 13% 11% 12% 11% 13%
[info]: i4 v,h,dc,ddl,ddr,vr,hd,vl,hu: 36%  6%  6%  7% 10%  9%  9%  8%  9%
[info]: i8c dc,h,v,p: 39% 27% 19% 15%
[info]: Weighted P-Frames: Y:4.8% UV:3.1%
[info]: ref P L0: 44.6% 10.6% 18.0%  7.1%  5.7%  4.0%  3.3%  1.9%  1.8%  1.4%  1.4%  0.2%  0.0%
[info]: ref B L0: 70.7% 12.5%  6.1%  3.3%  2.3%  1.9%  1.4%  1.0%  0.5%  0.2%
[info]: ref B L1: 92.2%  7.8%
[info]: kb/s:6629.21

encoded 168432 frames, 4.82 fps, 6629.21 kb/s, duration 9:42:51.20
Оригінал <----------> Ріп









Джерела та подяки: &
ріп відео, оригінальні звук та субтитри - SbR (Skazhutin) (HDClub); інформація про українське озвучення - Віктор, фільмографія Жана Рено - Тирік (всі - Гуртом).


ЗАЛИШАЙТЕСЬ ЯКОМОГА ДОВШЕ НА РОЗДАЧІ!

СКАЧАВ САМ - ДАЙ СКАЧАТИ ІНШИМ


 Трекер:    Зареєстрований   

Завантажити / скачати фільм українською



відео для новачків



 Зареєстрований:   2015-04-03 21:10
 Розмір:   6.96 GB 
 Оцінка фільму:   3/10 (Голосів: 13)
   
Інші релізи
   22 кулі. Безсмертний / L'immortel (2010) patriot2305  4 / 0   1.46 GB   2012-07-13 13:58 
   22 кулі. Безсмертний / L'immortel (2010) AVC hellforces  4 / 0   2.16 GB   2011-01-08 12:16 
   22 кулі: Безсмертний / L'immortel (2010) DVD-9 777joker777  1 / 0   5.24 GB   2010-09-19 15:08 
Ваш часовий пояс: GMT + 2 Години

Нова тема   Відповісти