Завантажити та скачати торренти українською


Термінал / The Terminal (2004) 720p 2xUkr/Eng | Sub Eng

Нові коментарі

Нова тема   Відповісти
Автор Повідомлення
Anonymous 







2015-04-03 06:25  
Термінал / The Terminal (2004) 720p 2xUkr/Eng | Sub Eng



Оригінальні постери







Жанр: драма, комедія
Країна: США



Кінокомпанія: DreamWorks SKG, Amblin Entertainment, Parkes+MacDonald Image Nation
Режисер: Стівен Спілберґ / Steven Spielberg
Актори: Том Генкс / Tom Hanks, Кетрін Зета-Джонс / Catherine Zeta-Jones, Стенлі Тучі / Stanley Tucci, Чі МакБрайд / Chi McBride, Дієґо Люна / Diego Luna, Баррі Шабака Генлі / Barry Shabaka Henley, Кумар Паллана / Kumar Pallana, Зої Салдана / Zoe Saldana, Едді Джонс / Eddie Jones, Джуд Сікколелла / Jude Ciccolella та інші

Сюжет:
Фільм культового режисера Стівена Спілберґа. Віктор Наворскі, мешканець однієї з країн Східної Європи, прибуває до нью-йоркського аеропорту Кеннеді. За час перельоту до Америки в його державі відбувається військовий переворот, і тепер він не може ні повернутися додому, ні потрапити в США. Віктор вимушений залишитися у терміналі аеропорту. Там він починає нове життя – знаходить друзів, наживає ворогів і, навіть, закохується...


Рейтинг MPAA: PG-13 - дітям до 13 років перегляд не бажаний
Вікова категорія: 12+

Тривалість: 02:08:45
Якість: 720p
Відео:
кодек:
розмір кадру: 1280 х 690
бітрейт: 14,8 Мбіт/с [crf=18]

Аудіо # 1:
мова: українська
переклад: багатоголосий закадровий
кодек: 2.0
бітрейт: 192 кбіт/с

Аудіо # 2: Новий канал
мова: українська
переклад: двоголосий закадровий
ролі озвучили: Андрій Самінін і Наталя Ярошенко
кодек: 2.0
бітрейт: 192 кбіт/с

Аудіо # 3:
мова: англійська
переклад: оригінал
кодек: 5.1
бітрейт: 1509 кбіт/с

Субтитри:
мова: англійська (повні, SDH)
тип: програмні (м'які)
формат: *.srt

Збережено оригінальні розділи, як на Blu-ray.
MediaInfo та log
Код:
General
Unique ID                   : 226521820079517761771114866923283668220 (0xAA6A8400A4D239EFA4AE1BA0578FDCFC)
Complete name               : The Terminal (2004) [2xUkr,Eng sub.Eng] 720p [Hurtom].mkv
Format                      : Matroska
Format version              : Version 4 / Version 2
File size                   : 15.3 GiB
Duration                    : 2h 8mn
Overall bit rate            : 17.0 Mbps
Movie name                  : Термінал / The Terminal (2004) [2xUkr,Eng sub.Eng] 720p [Hurtom]
Encoded date                : UTC 2015-04-02 17:43:13
Writing application         : mkvmerge v7.8.0 ('River Man') 64bit built on Mar 27 2015 16:31:37
Writing library             : libebml v1.3.1 + libmatroska v1.4.2
DURATION                    : 02:00:29.931000000
NUMBER_OF_FRAMES            : 1472
NUMBER_OF_BYTES             : 51389
_STATISTICS_WRITING_APP     : mkvmerge v7.8.0 ('River Man') 64bit built on Mar 27 2015 16:31:37
_STATISTICS_WRITING_DATE_UT : 2015-04-02 17:43:13
_STATISTICS_TAGS            : BPS DURATION NUMBER_OF_FRAMES NUMBER_OF_BYTES

Video
ID                          : 1
Format                      : AVC
Format/Info                 : Advanced Video Codec
Format profile              : [email protected]
Format settings, CABAC      : Yes
Format settings, ReFrames   : 9 frames
Codec ID                    : V_MPEG4/ISO/AVC
Duration                    : 2h 8mn
Bit rate                    : 14.8 Mbps
Width                       : 1 280 pixels
Height                      : 690 pixels
Display aspect ratio        : 1.85:1
Frame rate mode             : Constant
Frame rate                  : 23.976 fps
Color space                 : YUV
Chroma subsampling          : 4:2:0
Bit depth                   : 8 bits
Scan type                   : Progressive
Bits/(Pixel*Frame)          : 0.697
Stream size                 : 13.3 GiB (87%)
Title                       : Термінал / The Terminal / Терминал (2004) 720p [Vikosol]
Writing library             : core 142 r2431+42 c69a006 tMod [[email protected] X86_64]
Encoding settings           : cabac=1 / ref=9 / deblock=1:-3:-3 / analyse=0x3:0x113 / me=umh / subme=11 / psy=1 / fade_compensate=0.00 / psy_rd=0.95:0.20 / mixed_ref=1 / me_range=32 / chroma_me=1 / trellis=2 / 8x8dct=1 / cqm=0 / deadzone=21,11 / fast_pskip=0 / chroma_qp_offset=-3 / threads=6 / lookahead_threads=1 / sliced_threads=0 / nr=0 / decimate=0 / interlaced=0 / bluray_compat=0 / constrained_intra=0 / fgo=0 / bframes=10 / b_pyramid=2 / b_adapt=2 / b_bias=0 / direct=1 / weightb=1 / open_gop=0 / weightp=2 / keyint=240 / keyint_min=23 / scenecut=40 / intra_refresh=0 / rc=crf / mbtree=0 / crf=18.0000 / qcomp=0.75 / qpmin=0:0:0 / qpmax=69:69:69 / qpstep=4 / ip_ratio=1.40 / pb_ratio=1.30 / aq=1:0.85 / aq-sensitivity=10.00 / aq-factor=1.00:1.00:1.00 / aq2=0 / aq3=0
Language                    : English
Default                     : Yes
Forced                      : No
DURATION                    : 02:08:45.843000000
NUMBER_OF_FRAMES            : 185235
NUMBER_OF_BYTES             : 14580922806
_STATISTICS_WRITING_APP     : mkvmerge v7.8.0 ('River Man') 64bit built on Mar 27 2015 16:31:37
_STATISTICS_WRITING_DATE_UT : 2015-04-02 17:43:13
_STATISTICS_TAGS            : BPS DURATION NUMBER_OF_FRAMES NUMBER_OF_BYTES

Audio #1
ID                          : 2
Format                      : AC-3
Format/Info                 : Audio Coding 3
Format profile              : Dolby Digital
Mode extension              : CM (complete main)
Format settings, Endianness : Big
Codec ID                    : A_AC3
Duration                    : 2h 8mn
Bit rate mode               : Constant
Bit rate                    : 192 Kbps
Channel(s)                  : 2 channels
Channel positions           : Front: L R
Sampling rate               : 48.0 KHz
Bit depth                   : 16 bits
Compression mode            : Lossy
Stream size                 : 177 MiB (1%)
Title                       : MVO [Inter] 2.0 192 kbps [Hurtom-DеLight]
Language                    : Ukrainian
Default                     : Yes
Forced                      : No

Audio #2
ID                          : 3
Format                      : AC-3
Format/Info                 : Audio Coding 3
Format profile              : Dolby Digital
Mode extension              : CM (complete main)
Format settings, Endianness : Big
Codec ID                    : A_AC3
Duration                    : 2h 8mn
Bit rate mode               : Constant
Bit rate                    : 192 Kbps
Channel(s)                  : 2 channels
Channel positions           : Front: L R
Sampling rate               : 48.0 KHz
Bit depth                   : 16 bits
Compression mode            : Lossy
Stream size                 : 177 MiB (1%)
Title                       : DVO [Novyj] 2.0 192 kbps [Hurtom-DеLight]
Language                    : Ukrainian
Default                     : No
Forced                      : No

Audio #3
ID                          : 4
Format                      :
Format/Info                 : Digital Theater Systems
Mode                        : 16
Format settings, Endianness : Big
Codec ID                    : A_DTS
Duration                    : 2h 8mn
Bit rate mode               : Constant
Bit rate                    : 1 509 Kbps
Channel(s)                  : 6 channels
Channel positions           : Front: L C R, Side: L R, LFE
Sampling rate               : 48.0 KHz
Bit depth                   : 24 bits
Compression mode            : Lossy
Stream size                 : 1.36 GiB (9%)
Title                       : Original 5.1 1509 kbps
Language                    : English
Default                     : No
Forced                      : No

Text #1
ID                          : 5
Format                      : UTF-8
Codec ID                    : S_TEXT/UTF8
Codec ID/Info               : UTF-8 Plain Text
Title                       : Full
Language                    : English
Default                     : No
Forced                      : No

Text #2
ID                          : 6
Format                      : UTF-8
Codec ID                    : S_TEXT/UTF8
Codec ID/Info               : UTF-8 Plain Text
Title                       : SDH
Language                    : English
Default                     : No
Forced                      : No

Menu
00:00:00.000                : :Chapter 01
00:03:15.068                : :Chapter 02
00:08:59.288                : :Chapter 03
00:14:02.049                : :Chapter 04
00:15:27.259                : :Chapter 05
00:18:34.445                : :Chapter 06
00:20:25.641                : :Chapter 07
00:23:04.257                : :Chapter 08
00:27:40.324                : :Chapter 09
00:29:41.863                : :Chapter 10
00:32:28.571                : :Chapter 11
00:35:06.187                : :Chapter 12
00:41:22.146                : :Chapter 13
00:47:21.295                : :Chapter 14
00:52:10.168                : :Chapter 15
00:57:34.075                : :Chapter 16
01:00:36.341                : :Chapter 17
01:05:59.997                : :Chapter 18
01:16:04.560                : :Chapter 19
01:18:18.652                : :Chapter 20
01:29:05.673                : :Chapter 21
01:32:53.859                : :Chapter 22
01:35:16.001                : :Chapter 23
01:42:00.113                : :Chapter 24
01:48:59.491                : :Chapter 25
01:51:01.071                : :Chapter 26
01:57:51.939                : :Chapter 27
02:01:33.703                : :Chapter 28
02:08:45.592                : :Chapter 29


Код:
[info]: frame I:1131 Avg QP:17.27 size:175284
[info]: frame P:33141 Avg QP:18.79 size:118502
[info]: frame B:150963 Avg QP:20.92 size: 69258
[info]: consecutive B-frames: 0.9% 0.7% 2.4% 16.0% 14.0% 38.8% 8.6% 5.2% 4.7% 5.1% 3.6%
[info]: mb I I16..4: 24.2% 51.9% 23.8%
[info]: mb P I16..4: 11.3% 20.9% 6.2% P16..4: 17.1% 24.0% 14.0% 0.0% 0.0% skip: 6.4%
[info]: mb B I16..4: 1.2% 6.5% 1.1% B16..8: 30.7% 24.4% 7.1% direct:15.7% skip:13.4% L0:40.0% L1:29.8% BI:30.2%
[info]: 8x8 transform intra:63.9% inter:38.2%
[info]: coded y,uvDC,uvAC intra: 93.4% 92.2% 78.2% inter: 66.4% 51.3% 16.4%
[info]: i16 v,h,dc,p: 3% 1% 44% 51%
[info]: i8 v,h,dc,ddl,ddr,vr,hd,vl,hu: 12% 9% 22% 8% 10% 9% 10% 9% 12%
[info]: i4 v,h,dc,ddl,ddr,vr,hd,vl,hu: 29% 6% 10% 7% 10% 9% 9% 9% 10%
[info]: i8c dc,h,v,p: 47% 20% 18% 15%
[info]: Weighted P-Frames: Y:8.5% UV:6.0%
[info]: ref P L0: 34.4% 10.2% 20.6% 9.3% 7.9% 5.6% 5.2% 3.2% 3.2% 0.2% 0.0%
[info]: ref B L0: 64.6% 14.8% 8.2% 4.5% 3.5% 2.7% 1.3% 0.4%
[info]: ref B L1: 89.2% 10.8%
[info]: kb/s:15098.34

[total]: encoded 185235 frames, 4.336 fps, 15098.34 kb/s, 13905 MB


Оригінал <----------> Ріп






Джерела та подяки: &
ріп відео, оригінальні звук та субтитри - Vikosol (рутрекер); українські доріжки - DеLight - зведення, dvorsky, POMEO - запис з ТБ; фільмографії акторів та інформація про озвучення - Віктор, Neo777 (всі - Гуртом).


ЗАЛИШАЙТЕСЬ ЯКОМОГА ДОВШЕ НА РОЗДАЧІ!

СКАЧАВ САМ - ДАЙ СКАЧАТИ ІНШИМ


Срібний реліз (на рейтинг впливає 50% завантаженого)
 Трекер:    Зареєстрований   

Завантажити / скачати фільм українською



відео для новачків



 Зареєстрований:   2015-04-03 06:25
 Розмір:   15.29 GB 
 Оцінка фільму:   4.3/10 (Голосів: 17)
   
Інші релізи
   Термінал / The Terminal (2004) 1080p 2xUkr/Eng | Sub Eng igor911  3 / 0   21.48 GB   2015-03-28 09:23 
   Термінал / The Terminal (2004) 2xUkr DеLight  12 / 0   2.18 GB   2014-05-17 18:20 
student1508 
Поважний учасник


З нами з: 27.02.10
Востаннє: 02.12.16
Повідомлень: 213

2015-04-04 19:33  
igor911 написано:
бітрейт: 14,8 Мбіт/с [crf=18]

та це вже чистий 1080p.
Для 720p бітрейту і до 5,5 Мб з головою вистачає.

Anonymous 







2015-04-04 21:05  
student1508, тут причина високого бітрейту - занадто зернисте джерело. А параметр кодування CRF (на відміну від двопрохідного кодування) і дозволяє використовувати саме стільки бітрейту в кожному кадрі, скільки необхідно для збереження заданого (18) рівня якості.
Ваш часовий пояс: GMT + 2 Години

Нова тема   Відповісти