Завантажити та скачати торренти українською


Олександр Смик - Межа (2013) [FLAC] | Bard

Нові коментарі

Нова тема   Відповісти
Автор Повідомлення
ssTAss 
Модератор музики


З нами з: 05.07.08
Востаннє: 03.12.16
Повідомлень: 10932

2015-04-03 01:30  
Олександр Смик - Межа (2013) [FLAC] | Bard

Олександр Смик - Межа (2013) [FLAC] | Bard


Стиль: Acoustic
Країна, місто: Україна, Тернопіль
Видавець: Гроліс
Виконавці:
Олександр Смик
Пісні:
    1. Межа
    2. Ой, пане Симоне, якби Реконструкція Крут
    3. Пане Симоне - оголошуйте збір
    4. Чорні ворони
    5. Прощайте, сотнику
    6. Вальс з Україною
    7. Твоя в’язниця
    8. Запрошую на хрест (поезія). Яблука на підвіконні
    9. У нас в раю
    10. Пам’яті Богдана Ступки
    11. Ти розчарований у дні
    12. Ти покури
    13. Ти не моя
    14. Третій Спас на полонині
    15. Покарай на останню любов
    16. Світлячки. Якщо холодно
    17. Жінка професора
    18. Ах, дуелі та дуелі
log
Exact Audio Copy V1.0 beta 3 from 29. August 2011

EAC extraction logfile from 2. April 2015, 13:50

Олександр Смик / Межа

Used drive : HL-DT-STDVDRAM GSA-4163B Adapter: 0 ID: 0

Read mode : Secure
Utilize accurate stream : Yes
Defeat audio cache : Yes
Make use of C2 pointers : No

Read offset correction : 667
Overread into Lead-In and Lead-Out : No
Fill up missing offset samples with silence : Yes
Delete leading and trailing silent blocks : No
Null samples used in CRC calculations : Yes
Used interface : Native Win32 interface for Win NT & 2000

Used output format : User Defined Encoder
Selected bitrate : 320 kBit/s
Quality : High
Add ID3 tag : No
Command line compressor : C:\Program Files\Exact Audio Copy\FLAC\FLAC.EXE
Additional command line options : -8 -V -T "ARTIST=%artist%" -T "TITLE=%title%" -T "ALBUM=%albumtitle%" -T "DATE=%year%" -T "TRACKNUMBER=%tracknr2%" -T "GENRE=%genre%" -T "COMMENT=%comment%" -T "BAND=%albuminterpret%" -T "ALBUMARTIST=%albuminterpret%" -T "COMPOSER=%composer%" %haslyrics%--tag-from-file=LYRICS="%lyricsfile%"%haslyrics% -T "DISCNUMBER=%cdnumber%" -T "TOTALDISCS=%totalcds%" -T "TOTALTRACKS=%numtracks%" %hascover%--picture="%coverfile%"%hascover% %source% -o %dest%

TOC of the extracted CD

Track | Start | Length | Start sector | End sector
---------------------------------------------------------
1 | 0:00.00 | 4:14.59 | 0 | 19108
2 | 4:14.59 | 4:33.24 | 19109 | 39607
3 | 8:48.08 | 1:58.70 | 39608 | 48527
4 | 10:47.03 | 3:33.13 | 48528 | 64515
5 | 14:20.16 | 3:45.11 | 64516 | 81401
6 | 18:05.27 | 3:32.05 | 81402 | 97306
7 | 21:37.32 | 1:45.49 | 97307 | 105230
8 | 23:23.06 | 3:15.49 | 105231 | 119904
9 | 26:38.55 | 2:53.55 | 119905 | 132934
10 | 29:32.35 | 1:41.46 | 132935 | 140555
11 | 31:14.06 | 3:10.04 | 140556 | 154809
12 | 34:24.10 | 2:27.40 | 154810 | 165874
13 | 36:51.50 | 2:51.55 | 165875 | 178754
14 | 39:43.30 | 3:05.69 | 178755 | 192698
15 | 42:49.24 | 3:21.58 | 192699 | 207831
16 | 46:11.07 | 3:18.48 | 207832 | 222729
17 | 49:29.55 | 2:33.46 | 222730 | 234250
18 | 52:03.26 | 3:37.46 | 234251 | 250571

Range status and errors

Selected range

Filename E:\Lossless\2013 - О.Смик - Межа\Олександр Смик - Межа.wav

Peak level 100.0 %
Extraction speed 7.3 X
Range quality 100.0 %
Test CRC 889C164B
Copy CRC 889C164B
Copy OK

No errors occurred

End of status report

---- CUETools DB Plugin V2.1.3

[CTDB TOCID: kW3lw_HTfjOivCLsvbRE55bfq2U-] disk not present in database, Submit result: kW3lw_HTfjOivCLsvbRE55bfq2U- has been uploaded
fooCDtect
fooCDtect - foobar2000 + auCDtect, baralgin.

auCDtect: CD records authenticity detector, version 0.8.2
Copyright (c) 2004 Oleg Berngardt. All rights reserved.
Copyright (c) 2004 Alexander Djourik. All rights reserved.

mode: 0

===========================================
Track: 01 - Межа
Quality: CDDA 100%
===========================================
Track: 02 - Ой, пане Симоне, якби Реконструкція Крут
Quality: CDDA 99%
===========================================
Track: 03 - Пане Симоне - оголошуйте збір
Quality: CDDA 99%
===========================================
Track: 04 - Чорні ворони
Quality: CDDA 100%
===========================================
Track: 05 - Прощайте, сотнику
Quality: CDDA 100%
===========================================
Track: 06 - Вальс з Україною
Quality: CDDA 100%
===========================================
Track: 07 - Твоя в’язниця
Quality: CDDA 99%
===========================================
Track: 08 - Запрошую на хрест (поезія). Яблука на підвіконні
Quality: CDDA 100%
===========================================
Track: 09 - У нас в раю
Quality: CDDA 100%
===========================================
Track: 10 - Пам’яті Богдана Ступки
Quality: CDDA 99%
===========================================
Track: 11 - Ти розчарований у дні
Quality: CDDA 100%
===========================================
Track: 12 - Ти покури
Quality: CDDA 100%
===========================================
Track: 13 - Ти не моя
Quality: CDDA 100%
===========================================
Track: 14 - Третій Спас на полонині
Quality: CDDA 100%
===========================================
Track: 15 - Покарай на останню любов
Quality: CDDA 100%
===========================================
Track: 16 - Світлячки. Якщо холодно
Quality: CDDA 100%
===========================================
Track: 17 - Жінка професора
Quality: CDDA 100%
===========================================
Track: 18 - Ах, дуелі та дуелі
Quality: CDDA 100%
===========================================
Тривалість: 00:55:41
Мова: українська
Аудіо-кодек: FLAC
Бітрейт: 662 кб/с
Джерело: диск надав пан Форкуш
Додаткова інформація:
Олександр Смик (народився 26 жовтня 1957 в с. Грузьке Кролевецького р–ну Сумської обл.) — український бард, драматург. Член національних спілок України: театральних діячів, кобзарів, журналістів та Всеукраїнської музичної спілки. Закінчив (1977) Рівненський державний педінститут (педагогічний факультет) та Київський університет ім. Т.Г.Шевченка (1983). Автор концептуальних розробок музичних фестивалів: "Тарас Бульба", "Вивих", "Повстанські ночі", "Лаба", "Золоте підпілля", "Зелений цвіт — цвіт надії", "Кобзарські сезони Волині". Організатор першого приватного Будинку творчості "Потік Ірва" (2004). Живе і працює у м. Тернополі і м.Кременці Тернопільської обл.


Якщо Ви справді бажаєте підтримати українське - після прослуховування, якщо музика вам сподобалась,
придбайте ліцензійний диск.
Підтримаймо вітчизняних виконавців!


Срібний реліз (на рейтинг впливає 50% завантаженого)
 Трекер:    Зареєстрований   

Завантажити / скачати українську музику



відео для новачків



 Зареєстрований:   2015-04-03 01:30
 Розмір:   292 MB 
 Оцінка музики:   6.4/10 (Голосів: 10)
   
Ваш часовий пояс: GMT + 2 Години

Нова тема   Відповісти