Завантажити та скачати торренти українською


Мисливці за привидами 2 / Ghostbusters II (1989) 1080p Ukr/Eng | Sub Eng

Нові коментарі

Нова тема   Відповісти
Автор Повідомлення
bob_fucker 
Частий відвідувач


З нами з: 22.12.11
Востаннє: 07.12.16
Повідомлень: 29

2015-04-02 22:47  
Мисливці за привидами 2 / Ghostbusters II (1989) 1080p Ukr/Eng | Sub Eng

Мисливці за привидами 2 / Ghostbusters II (1989) 1080p Ukr/Eng | Sub Eng


Жанр: комедія, фентезі, жахи
Країна: США



Кінокомпанія: Columbia Pictures Corporation
Режисер: Айван Райтман
Актори: Біл Мюррей (Bill Murray), Ден Екройд, Сіґурні Вівер (Sigourney Weaver), Гарольд Реміс, Рік Мораніс, Ерні Хадсон, Енні Поттс та інші

Сюжет:
Після того, як мисливці за привидами перемогли могутнього привида, що загрожував знищити світ живих, минуло п'ять років. З тих пір нових примар не з'являлося і про героїв забули. Герої зайнялися кожен своєю справою. Але ось одного разу в головний музей Нью-Йорка «Метрополітен» привезли портрет стародавнього карпатського володаря Віго. Його дух повертається до життя на полотні і, підпорядкувавши собі доглядача музею Яноша, вимагає від нього знайти дитину, в яку він міг би перевтілитися. В цей же час мисливці за привидами дізнаються, що під містом з'явився якийсь рожевий слиз, який під дією людських емоцій породжує демонів. В результаті натовпи нечисті атакують Нью-Йорк і герої знову беруться за свою зброю....


Тривалість: 01:48:19
Якість: 1080p
Відео:
кодек:
розмір кадру: 1920x800
бітрейт: 12 800 кб/с

Аудіо # 1:
мова: українська
переклад: двоголосий закадровий
кодек: 2.0
бітрейт: 192 кб/с
Інформація про озвучення
Аудіо # 2:
мова: англійська
переклад: оригінал
кодек: 5.1
бітрейт: 1 509 кб/с

Джерело озвучення:
&

Субтитри:
мова: англійська
тип: програмні (м'які)
формат: *.srt
MediaInfo
General
Unique ID : 187313031724570780514844292323933134880 (0x8CEB2D7C41472A009451179DF6E7A020)
Complete name : Ghostbusters II (1989) [Ukr, Eng] 1080p [Hurtom].mkv
Format : Matroska
Format version : Version 4 / Version 2
File size : 11.0 GiB
Duration : 1h 48mn
Overall bit rate : 14.5 Mbps
Encoded date : UTC 2015-04-02 19:57:02
Writing application : mkvmerge v7.2.0 ('On Every Street') 64bit built on Sep 13 2014 15:52:10
Writing library : libebml v1.3.0 + libmatroska v1.4.1
Attachements : cover.jpg
DURATION : 01:48:19.499000000
NUMBER_OF_FRAMES : 609328
NUMBER_OF_BYTES : 1225967936
_STATISTICS_WRITING_APP : mkvmerge v7.2.0 ('On Every Street') 64bit built on Sep 13 2014 15:52:10
_STATISTICS_WRITING_DATE_UTC : 2015-04-02 19:57:02
_STATISTICS_TAGS : BPS DURATION NUMBER_OF_FRAMES NUMBER_OF_BYTES

Video
ID : 1
Format : AVC
Format/Info : Advanced Video Codec
Format profile : [email protected]
Format settings, CABAC : Yes
Format settings, ReFrames : 5 frames
Codec ID : V_MPEG4/ISO/AVC
Duration : 1h 48mn
Bit rate : 12.8 Mbps
Width : 1 920 pixels
Height : 800 pixels
Display aspect ratio : 2.40:1
Frame rate mode : Constant
Frame rate : 23.976 fps
Color space : YUV
Chroma subsampling : 4:2:0
Bit depth : 8 bits
Scan type : Progressive
Bits/(Pixel*Frame) : 0.348
Stream size : 9.47 GiB (86%)
Title : Ghostbusters II (1989)
Writing library : core 142 r2431+42 c69a006 tMod [[email protected]:2:0 X86_64]
Encoding settings : cabac=1 / ref=5 / deblock=1:-3:-3 / analyse=0x3:0x113 / me=umh / subme=11 / psy=1 / fade_compensate=0.00 / psy_rd=1.00:0.20 / mixed_ref=1 / me_range=32 / chroma_me=1 / trellis=2 / 8x8dct=1 / cqm=0 / deadzone=21,11 / fast_pskip=0 / chroma_qp_offset=-3 / threads=12 / lookahead_threads=2 / sliced_threads=0 / nr=0 / decimate=0 / interlaced=0 / bluray_compat=0 / constrained_intra=0 / fgo=0 / bframes=9 / b_pyramid=2 / b_adapt=2 / b_bias=0 / direct=3 / weightb=1 / open_gop=0 / weightp=2 / keyint=240 / keyint_min=23 / scenecut=40 / intra_refresh=0 / rc=2pass / mbtree=0 / bitrate=12800 / ratetol=1.0 / qcomp=0.60 / qpmin=0:0:0 / qpmax=69:69:69 / qpstep=4 / cplxblur=20.0 / qblur=0.5 / ip_ratio=1.40 / pb_ratio=1.30 / aq=4:0.80 / aq-sensitivity=10.00 / aq-factor=1.00:1.00:1.00 / aq2=0 / aq3=0
Default : Yes
Forced : No
DURATION : 01:48:19.493000000
NUMBER_OF_FRAMES : 155832
NUMBER_OF_BYTES : 10397267929
_STATISTICS_WRITING_APP : mkvmerge v7.2.0 ('On Every Street') 64bit built on Sep 13 2014 15:52:10
_STATISTICS_WRITING_DATE_UTC : 2015-04-02 19:57:02
_STATISTICS_TAGS : BPS DURATION NUMBER_OF_FRAMES NUMBER_OF_BYTES

Audio #1
ID : 3
Format : AC-3
Format/Info : Audio Coding 3
Mode extension : CM (complete main)
Format settings, Endianness : Big
Codec ID : A_AC3
Duration : 1h 48mn
Bit rate mode : Constant
Bit rate : 192 Kbps
Channel(s) : 2 channels
Channel positions : Front: L R
Sampling rate : 48.0 KHz
Bit depth : 16 bits
Compression mode : Lossy
Stream size : 149 MiB (1%)
Title : Новий канал/ ICTV
Language : Ukrainian
Default : No
Forced : No

Audio #2
ID : 4
Format :
Format/Info : Digital Theater Systems
Mode : 16
Format settings, Endianness : Big
Codec ID : A_DTS
Duration : 1h 48mn
Bit rate mode : Constant
Bit rate : 1 509 Kbps
Channel(s) : 6 channels
Channel positions : Front: L C R, Side: L R, LFE
Sampling rate : 48.0 KHz
Bit depth : 24 bits
Compression mode : Lossy
Stream size : 1.14 GiB (10%)
Language : English
Default : No
Forced : No

Text
ID : 2
Format : UTF-8
Codec ID : S_TEXT/UTF8
Codec ID/Info : UTF-8 Plain Text
Language : English
Default : No
Forced : No

Menu
00:00:00.000 : en:Chapter 01
00:05:00.550 : en:Chapter 02
00:11:44.161 : en:Chapter 03
00:18:16.011 : en:Chapter 04
00:23:36.498 : en:Chapter 05
00:32:39.958 : en:Chapter 06
00:39:20.816 : en:Chapter 07
00:46:15.147 : en:Chapter 08
00:52:36.486 : en:Chapter 09
00:58:45.980 : en:Chapter 10
01:05:34.055 : en:Chapter 11
01:14:06.775 : en:Chapter 12
01:19:22.215 : en:Chapter 13
01:27:22.528 : en:Chapter 14
01:33:06.539 : en:Chapter 15
01:38:10.634 : en:Chapter 16
Скріншоти





Джерело:
Особиста оцінка: 8 - мені сподобалося


Срібний реліз (на рейтинг впливає 50% завантаженого)
 Трекер:    Зареєстрований   

Завантажити / скачати фільм українською



відео для новачків



 Зареєстрований:   2015-04-02 22:47
 Розмір:   10.97 GB 
 Оцінка фільму:   8.8/10 (Голосів: 6)
   
valentin66658 
Новенький


З нами з: 26.01.16
Востаннє: 05.12.16
Повідомлень: 8

2016-11-06 11:03  
і тут теж роздачі як коти насцяли
igor911 
Відео Гуртом
Відео Гуртом


З нами з: 18.01.08
Востаннє: 08.12.16
Повідомлень: 5182

2016-11-06 11:12  
valentin66658 написано:
і тут теж роздачі як коти насцяли

valentin66658 написано:
Рейтинг: 0.08

з рейтингом аналогічно

Ваш часовий пояс: GMT + 2 Години

Нова тема   Відповісти