Завантажити та скачати торренти українською


Мисливці за привидами / Ghost Busters (1984) 1080p 3xUkr/Eng | Sub Eng

Нові коментарі

Нова тема   Відповісти
Автор Повідомлення
bob_fucker 
Частий відвідувач


З нами з: 22.12.11
Востаннє: 08.12.16
Повідомлень: 29

2015-04-02 21:47  
Мисливці за привидами / Ghostbusters (1984) 1080p 3xUkr/Eng | Sub Eng

Мисливці за привидами / Ghost Busters (1984) 1080p 3xUkr/Eng | Sub Eng


Жанр: комедія, фентезі, фантастика
Країна: США



Кінокомпанія: Black Rhino Productions, Columbia Pictures Corporation, Delphi Films
Режисер: Айван Райтман
Актори: Білл Мюррей, Ден Ейкройд, Сіґурні Вівер, Гарольд Реміс, Рік Мореніс, Ені Поттс та інші.

Сюжет:
Наприкінці двадцятого століття виявляється, що в Нью-Йорку живуть не лише звичайні громадяни, але й… привиди. Багатомільйонне населення не може протистояти натиску надприродного. Зрештою на шляху незліченних монстрів не залишається нікого, окрім трьох учених-парапсихологів, яким відомо все про потойбічний світ, щоправда, лише в теорії. І тепер їм доведеться залишити запорошені кабінети й застосувати свої знання на практиці!


Тривалість: 01:45:08
Якість:
Відео:
кодек:
розмір кадру: 1920x804
бітрейт: ~17 000 кб/с

Аудіо # 1:
мова: українська
переклад: двоголосий закадровий (1+1/ТЕТ)
кодек: 2.0
бітрейт: 192 кб/с

Аудіо # 2:
мова: українська
переклад: багатоголосий закадровий (Новий Канал)
кодек: 2.0
бітрейт: 192 кб/с

Аудіо # 3:
мова: українська
переклад: багатоголосий закадровий (ТРК "Україна"/ICTV)
кодек: 2.0
бітрейт: 192 кб/с

Аудіо # 4:
мова: англійська
переклад: оригінал
кодек: 5.1
бітрейт: 640 кб/с

Субтитри:
мова: англійська
тип: програмні (м'які)
формат: *.srt
MediaInfo
General
Unique ID : 220649545308302306633890833223359286600 (0xA5FF8E80C6B48922B2FD603D17F64D48)
Complete name : Ghostbusters (1984) [3xUkr, Eng] 1080p [Hurtom].mkv
Format : Matroska
Format version : Version 4 / Version 2
File size : 13.4 GiB
Duration : 1h 45mn
Overall bit rate : 18.2 Mbps
Encoded date : UTC 2015-04-02 18:37:15
Writing application : mkvmerge v7.2.0 ('On Every Street') 64bit built on Sep 13 2014 15:52:10
Writing library : libebml v1.3.0 + libmatroska v1.4.1
_STATISTICS_WRITING_APP : mkvmerge v7.2.0 ('On Every Street') 64bit built on Sep 13 2014 15:52:10
_STATISTICS_WRITING_DATE_UTC : 2015-04-02 18:37:15
_STATISTICS_TAGS : BPS DURATION NUMBER_OF_FRAMES NUMBER_OF_BYTES
DURATION : 01:36:24.736000000
NUMBER_OF_FRAMES : 1132
NUMBER_OF_BYTES : 46191

Video
ID : 1
Format : AVC
Format/Info : Advanced Video Codec
Format profile : [email protected]
Format settings, CABAC : Yes
Format settings, ReFrames : 4 frames
Codec ID : V_MPEG4/ISO/AVC
Duration : 1h 45mn
Bit rate : 17.0 Mbps
Width : 1 920 pixels
Height : 804 pixels
Display aspect ratio : 2.40:1
Frame rate mode : Constant
Frame rate : 23.976 fps
Color space : YUV
Chroma subsampling : 4:2:0
Bit depth : 8 bits
Scan type : Progressive
Bits/(Pixel*Frame) : 0.459
Stream size : 12.2 GiB (91%)
Title : Ghost Busters [Mastered in 4K] (1984)
Writing library : core 135 r2345 f0c1c53
Encoding settings : cabac=1 / ref=4 / deblock=1:-3:-3 / analyse=0x3:0x113 / me=umh / subme=10 / psy=1 / psy_rd=1.00:0.15 / mixed_ref=1 / me_range=32 / chroma_me=1 / trellis=2 / 8x8dct=1 / cqm=0 / deadzone=21,11 / fast_pskip=0 / chroma_qp_offset=-3 / threads=3 / lookahead_threads=1 / sliced_threads=0 / nr=0 / decimate=0 / interlaced=0 / bluray_compat=0 / constrained_intra=0 / bframes=8 / b_pyramid=2 / b_adapt=2 / b_bias=0 / direct=3 / weightb=1 / open_gop=0 / weightp=2 / keyint=240 / keyint_min=24 / scenecut=40 / intra_refresh=0 / rc_lookahead=60 / rc=2pass / mbtree=0 / bitrate=17000 / ratetol=1.0 / qcomp=0.65 / qpmin=0 / qpmax=69 / qpstep=4 / cplxblur=20.0 / qblur=0.5 / vbv_maxrate=40000 / vbv_bufsize=30000 / nal_hrd=none / ip_ratio=1.40 / pb_ratio=1.30 / aq=2:0.80
Language : English
Default : Yes
Forced : No

Audio #1
ID : 3
Format : AC-3
Format/Info : Audio Coding 3
Mode extension : CM (complete main)
Format settings, Endianness : Big
Codec ID : A_AC3
Duration : 1h 45mn
Bit rate mode : Constant
Bit rate : 192 Kbps
Channel(s) : 2 channels
Channel positions : Front: L R
Sampling rate : 48.0 KHz
Bit depth : 16 bits
Compression mode : Lossy
Stream size : 144 MiB (1%)
Title : 1+1/ТЕТ
Language : Ukrainian
Default : No
Forced : No

Audio #2
ID : 4
Format : AC-3
Format/Info : Audio Coding 3
Mode extension : CM (complete main)
Format settings, Endianness : Big
Codec ID : A_AC3
Duration : 1h 45mn
Bit rate mode : Constant
Bit rate : 192 Kbps
Channel(s) : 2 channels
Channel positions : Front: L R
Sampling rate : 48.0 KHz
Bit depth : 16 bits
Compression mode : Lossy
Stream size : 144 MiB (1%)
Title : Новий Канал
Language : Ukrainian
Default : No
Forced : No

Audio #3
ID : 5
Format : AC-3
Format/Info : Audio Coding 3
Mode extension : CM (complete main)
Format settings, Endianness : Big
Codec ID : A_AC3
Duration : 1h 45mn
Bit rate mode : Constant
Bit rate : 192 Kbps
Channel(s) : 2 channels
Channel positions : Front: L R
Sampling rate : 48.0 KHz
Bit depth : 16 bits
Compression mode : Lossy
Stream size : 144 MiB (1%)
Title : ТРК "Україна"/ICTV
Language : Ukrainian
Default : Yes
Forced : No

Audio #4
ID : 6
Format : AC-3
Format/Info : Audio Coding 3
Mode extension : CM (complete main)
Format settings, Endianness : Big
Codec ID : A_AC3
Duration : 1h 45mn
Bit rate mode : Constant
Bit rate : 640 Kbps
Channel(s) : 6 channels
Channel positions : Front: L C R, Side: L R, LFE
Sampling rate : 48.0 KHz
Bit depth : 16 bits
Compression mode : Lossy
Stream size : 481 MiB (4%)
Title : Original
Language : English
Default : No
Forced : No

Text
ID : 2
Format : UTF-8
Codec ID : S_TEXT/UTF8
Codec ID/Info : UTF-8 Plain Text
Title : Full
Language : English
Default : No
Forced : No

Menu
00:00:00.000 : :Chapter 01
00:00:02.752 : :Chapter 02
00:04:15.630 : :Chapter 03
00:05:13.146 : :Chapter 04
00:07:08.052 : :Chapter 05
00:09:27.650 : :Chapter 06
00:09:57.638 : :Chapter 07
00:10:18.409 : :Chapter 08
00:12:38.632 : :Chapter 09
00:14:27.199 : :Chapter 10
00:15:03.819 : :Chapter 11
00:15:46.362 : :Chapter 12
00:17:06.191 : :Chapter 13
00:18:37.116 : :Chapter 14
00:19:27.499 : :Chapter 15
00:20:15.839 : :Chapter 16
00:20:55.921 : :Chapter 17
00:22:10.746 : :Chapter 18
00:24:08.572 : :Chapter 19
00:25:42.999 : :Chapter 20
00:28:40.468 : :Chapter 21
00:30:16.773 : :Chapter 22
00:30:49.848 : :Chapter 23
00:31:57.790 : :Chapter 24
00:32:22.732 : :Chapter 25
00:35:33.464 : :Chapter 26
00:35:47.478 : :Chapter 27
00:38:16.669 : :Chapter 28
00:39:29.283 : :Chapter 29
00:40:52.825 : :Chapter 30
00:42:07.274 : :Chapter 31
00:42:57.324 : :Chapter 32
00:43:50.961 : :Chapter 33
00:44:47.309 : :Chapter 34
00:45:17.464 : :Chapter 35
00:45:53.709 : :Chapter 36
00:46:54.770 : :Chapter 37
00:47:59.793 : :Chapter 38
00:50:25.147 : :Chapter 39
00:53:18.528 : :Chapter 40
00:54:48.743 : :Chapter 41
00:55:42.047 : :Chapter 42
00:56:23.129 : :Chapter 43
00:57:16.057 : :Chapter 44
00:59:14.384 : :Chapter 45
01:00:21.659 : :Chapter 46
01:00:48.686 : :Chapter 47
01:01:36.275 : :Chapter 48
01:02:35.501 : :Chapter 49
01:04:32.869 : :Chapter 50
01:05:41.812 : :Chapter 51
01:08:16.634 : :Chapter 52
01:09:54.273 : :Chapter 53
01:10:51.246 : :Chapter 54
01:11:54.852 : :Chapter 55
01:12:21.837 : :Chapter 56
01:15:22.434 : :Chapter 57
01:16:26.373 : :Chapter 58
01:17:57.339 : :Chapter 59
01:20:46.299 : :Chapter 60
01:22:57.180 : :Chapter 61
01:24:04.414 : :Chapter 62
01:25:59.320 : :Chapter 63
01:28:20.128 : :Chapter 64
01:30:57.910 : :Chapter 65
01:33:52.918 : :Chapter 66
01:34:13.606 : :Chapter 67
01:35:40.943 : :Chapter 68
01:36:29.366 : :Chapter 69
01:37:10.616 : :Chapter 70
01:37:53.200 : :Chapter 71
Скріншоти





Джерело: &
Українські аудіодоріжки взято з релізу https://toloka.to/t59384
Особиста оцінка: 8 - мені сподобалося


Срібний реліз (на рейтинг впливає 50% завантаженого)
 Трекер:    Зареєстрований   

Завантажити / скачати фільм українською



відео для новачків



 Зареєстрований:   2015-04-02 21:47
 Розмір:   13.37 GB 
 Оцінка фільму:   8.6/10 (Голосів: 8)
   
Інші релізи
igor911 
Відео Гуртом
Відео Гуртом


З нами з: 18.01.08
Востаннє: 09.12.16
Повідомлень: 5197

2015-04-02 22:11  
bob_fucker, оригінальна назва "Ghost Busters", виправ заголовок над постером, поправ лінк на імдб http://www.imdb.com/title/tt0087332/, вкажи авторів укр.доріжок звідси http://toloka.to/t59384

Додано через 43 секунди:

і чому третю доріжку (трк Україна) зробив за замовчуванням у контейнері?

Додано через 6 хвилин 23 секунди:

також оригінальна доріжка не аас, а АС3, і скрізь до бітрейта додай кбіт/с

bob_fucker 
Частий відвідувач


З нами з: 22.12.11
Востаннє: 08.12.16
Повідомлень: 29

2015-04-02 22:25  
Цитата:
оригінальна назва "Ghost Busters"

На imdb невірна назва. Це ріп з "mastered 4K" (http://www.amazon.com/Ghostbusters-Mastered-Single-Disc-Blu-ray-Digital/dp/B00BPA2PBG) ре-релізу. На усіх постерах завжди було разом (включаючі оригінальні). Imdb правиться юзерами, дані там не на 100% точні.

Цитата:
і чому третю доріжку (трк Україна) зробив за замовчуванням у контейнері?

Тому що найякісніший переклад.

Решту підправлено.

Ваш часовий пояс: GMT + 2 Години

Нова тема   Відповісти