Завантажити та скачати торренти українською


Пророк / Next (2007) 720p 2xUkr/Eng | Sub Ukr/Eng

Нові коментарі

Нова тема   Відповісти
Автор Повідомлення
Anonymous 







2015-04-01 09:37  
Пророк / Next (2007) 720p 2xUkr/Eng | Sub Ukr/Eng



Оригінальні постери







Жанр: фантастика, бойовик, трилер
Країна: США



Кінокомпанія: Paramount Pictures, Revolution Studios, Initial Entertainment Group (IEG), Virtual Studios, Saturn Films, Broken Road Productions, Eyetronics
Режисер: Лі Тамахорі / Lee Tamahori
Актори: Ніколас Кейдж / Nicolas Cage, Джуліан Мур / Julianne Moore, Джессіка Біл / Jessica Biel, Ензо Сіленті / Enzo Cilenti, Торі Кіттлз / Tory Kittles, Томас Кретшманн / Thomas Kretschmann та інші

Сюжет:
В Кріса Джонсона є таємниця, що псує його життя: він може передбачувати найближче майбутнє. Змучившись від безкінечної уваги уряду і медичних центрів, що намагаються розгадати природу його дивних можливостей, Кріс лягає на дно. Під вигаданим іменем він працює в Лас-Вегасі, де розважає публіку дешевими фокусами. Але коли група терористів загрожує Лос-Анджелесу, спеціальному агенту Келлі Ферріс знадобляться всі сили, щоб розшукати Кріса і переконати його допомогти відвернути катастрофу...


Рейтинг MPAA: PG-13 - дітям до 13 років перегляд не бажаний
Вікова категорія: 12+

Тривалість: 01:36:10
Якість: 720p
Відео:
кодек:
розмір кадру: 1280x530
бітрейт: 7439 кбіт/с

Аудіо # 1:
мова: українська
переклад: двоголосий закадровий
ролі озвучили: Олег Лепенець і Лідія Муращенко
кодек: 2.0
бітрейт: 192 кбіт/с

Аудіо # 2:
мова: українська
переклад: багатоголосий закадровий | Студія "Мова" на замовлення ТРК "Україна"
ролі озвучили: Михайло Кришталь, ще один чоловічий і один чи два жіночих голоси
кодек: 2.0
бітрейт: 192 кбіт/с

Аудіо # 3:
мова: англійська
переклад: оригінал
кодек: 5.1
бітрейт: 1509 кбіт/с

Субтитри # 1:
мова: українська
тип: програмні (м'які)
формат: *.srt

Субтитри # 2:
мова: англійська
тип: програмні (м'які)
формат: *.srt
MediaInfo та log
Код:
General
Unique ID                   : 206931020478489908795654814567446387221 (0x9BAD770220A4658E9DC1A64862709A15)
Complete name               : Next (2007) [2xUkr,Eng sub.Ukr,Eng] 720p [Hurtom].mkv
Format                      : Matroska
Format version              : Version 4 / Version 2
File size                   : 6.27 GiB
Duration                    : 1h 36mn
Overall bit rate            : 9 333 Kbps
Movie name                  : Пророк / Next (2007) [2xUkr,Eng sub.Ukr,Eng] 720p [Hurtom]
Encoded date                : UTC 2015-03-29 00:12:43
Writing application         : mkvmerge v7.8.0 ('River Man') 64bit built on Mar 27 2015 16:31:37
Writing library             : libebml v1.3.1 + libmatroska v1.4.2
DURATION                    : 01:36:10.848000000
NUMBER_OF_FRAMES            : 180339
NUMBER_OF_BYTES             : 138500352
_STATISTICS_WRITING_APP     : mkvmerge v7.8.0 ('River Man') 64bit built on Mar 27 2015 16:31:37
_STATISTICS_WRITING_DATE_UT : 2015-03-29 00:12:43
_STATISTICS_TAGS            : BPS DURATION NUMBER_OF_FRAMES NUMBER_OF_BYTES

Video
ID                          : 1
Format                      : AVC
Format/Info                 : Advanced Video Codec
Format profile              : [email protected]
Format settings, CABAC      : Yes
Format settings, ReFrames   : 4 frames
Codec ID                    : V_MPEG4/ISO/AVC
Duration                    : 1h 36mn
Bit rate                    : 7 439 Kbps
Width                       : 1 280 pixels
Height                      : 530 pixels
Display aspect ratio        : 2.40:1
Frame rate mode             : Constant
Frame rate                  : 23.976 fps
Color space                 : YUV
Chroma subsampling          : 4:2:0
Bit depth                   : 8 bits
Scan type                   : Progressive
Bits/(Pixel*Frame)          : 0.457
Stream size                 : 4.87 GiB (78%)
Title                       : Пророк / Next (2007) 720p [HqF]
Writing library             : core 80 r1376M 3feaec2
Encoding settings           : cabac=1 / ref=3 / deblock=1:-3:-3 / analyse=0x3:0x113 / me=tesa / subme=10 / psy=1 / psy_rd=0.9:0.0 / mixed_ref=1 / me_range=32 / chroma_me=1 / trellis=2 / 8x8dct=1 / cqm=0 / deadzone=21,11 / fast_pskip=0 / chroma_qp_offset=-3 / threads=6 / sliced_threads=0 / nr=0 / decimate=1 / mbaff=0 / constrained_intra=0 / bframes=3 / b_pyramid=2 / b_adapt=2 / b_bias=0 / direct=3 / wpredb=1 / wpredp=2 / keyint=250 / keyint_min=25 / scenecut=40 / rc=2pass / mbtree=0 / bitrate=7439 / ratetol=1.0 / qcomp=0.60 / qpmin=10 / qpmax=51 / qpstep=4 / cplxblur=20.0 / qblur=0.5 / ip_ratio=1.40 / pb_ratio=1.30 / aq=1:0.80
Language                    : English
Default                     : Yes
Forced                      : No
DURATION                    : 01:36:10.691000000
NUMBER_OF_FRAMES            : 138358
NUMBER_OF_BYTES             : 5364901789
_STATISTICS_WRITING_APP     : mkvmerge v7.8.0 ('River Man') 64bit built on Mar 27 2015 16:31:37
_STATISTICS_WRITING_DATE_UT : 2015-03-29 00:12:43
_STATISTICS_TAGS            : BPS DURATION NUMBER_OF_FRAMES NUMBER_OF_BYTES

Audio #1
ID                          : 2
Format                      : AC-3
Format/Info                 : Audio Coding 3
Mode extension              : CM (complete main)
Format settings, Endianness : Big
Codec ID                    : A_AC3
Duration                    : 1h 36mn
Bit rate mode               : Constant
Bit rate                    : 192 Kbps
Channel(s)                  : 2 channels
Channel positions           : Front: L R
Sampling rate               : 48.0 KHz
Bit depth                   : 16 bits
Compression mode            : Lossy
Stream size                 : 132 MiB (2%)
Title                       : DVO [2+2] 2.0 192 kbps [Hurtom-_oles]
Language                    : Ukrainian
Default                     : Yes
Forced                      : No

Audio #2
ID                          : 3
Format                      : AC-3
Format/Info                 : Audio Coding 3
Mode extension              : CM (complete main)
Format settings, Endianness : Big
Codec ID                    : A_AC3
Duration                    : 1h 36mn
Bit rate mode               : Constant
Bit rate                    : 192 Kbps
Channel(s)                  : 2 channels
Channel positions           : Front: L R
Sampling rate               : 48.0 KHz
Bit depth                   : 16 bits
Compression mode            : Lossy
Stream size                 : 132 MiB (2%)
Title                       : MVO [Ukraina-Mova] 2.0 192 kbps [Hurtom-_oles]
Language                    : Ukrainian
Default                     : No
Forced                      : No

Audio #3
ID                          : 4
Format                      :
Format/Info                 : Digital Theater Systems
Mode                        : 16
Format settings, Endianness : Big
Codec ID                    : A_DTS
Duration                    : 1h 36mn
Bit rate mode               : Constant
Bit rate                    : 1 509 Kbps
Channel(s)                  : 6 channels
Channel positions           : Front: L C R, Side: L R, LFE
Sampling rate               : 48.0 KHz
Bit depth                   : 24 bits
Compression mode            : Lossy
Stream size                 : 1.01 GiB (16%)
Title                       : Original 5.1 1509 kbps
Language                    : English
Default                     : No
Forced                      : No

Text #1
ID                          : 5
Format                      : UTF-8
Codec ID                    : S_TEXT/UTF8
Codec ID/Info               : UTF-8 Plain Text
Language                    : Ukrainian
Default                     : No
Forced                      : No

Text #2
ID                          : 6
Format                      : UTF-8
Codec ID                    : S_TEXT/UTF8
Codec ID/Info               : UTF-8 Plain Text
Language                    : English
Default                     : No
Forced                      : No


Код:
---[NoImage] [info]: 1280x530 @ 23.98 fps
---[NoImage] [info]: using SAR=1/1
---[NoImage] [info]: using cpu capabilities: MMX2 SSE2Fast SSSE3 FastShuffle SSE4.1 Cache64
---[NoImage] [info]: profile High, level 4.1
---[NoImage] [info]: frame I:1553 Avg QP:16.13 size:137470
---[NoImage] [info]: frame P:40139 Avg QP:17.86 size: 60638
---[NoImage] [info]: frame B:96666 Avg QP:19.92 size: 28112
---[NoImage] [info]: consecutive B-frames: 2.3% 7.6% 8.3% 81.8%
---[NoImage] [info]: mb I I16..4: 5.8% 75.4% 18.8%
---[NoImage] [info]: mb P I16..4: 0.8% 20.6% 2.2% P16..4: 22.7% 27.7% 17.0% 0.0% 0.0% skip: 9.0%
---[NoImage] [info]: mb B I16..4: 0.1% 3.3% 0.4% B16..8: 48.8% 4.2% 8.3% direct:13.7% skip:21.2% L0:41.3% L1:44.7% BI:14.0%
---[NoImage] [info]: 8x8 transform intra:86.3% inter:57.6%
---[NoImage] [info]: direct mvs spatial:97.9% temporal:2.1%
---[NoImage] [info]: coded y,uvDC,uvAC intra: 93.3% 95.4% 88.3% inter: 52.2% 40.1% 16.1%
---[NoImage] [info]: i16 v,h,dc,p: 53% 13% 9% 25%
---[NoImage] [info]: i8 v,h,dc,ddl,ddr,vr,hd,vl,hu: 12% 9% 14% 9% 12% 11% 11% 10% 12%
---[NoImage] [info]: i4 v,h,dc,ddl,ddr,vr,hd,vl,hu: 35% 8% 5% 7% 10% 10% 9% 8% 9%
---[NoImage] [info]: Weighted P-Frames: Y:7.1%
---[NoImage] [info]: ref P L0: 46.8% 26.2% 19.2% 7.4% 0.4%
---[NoImage] [info]: ref B L0: 82.2% 14.4% 3.4%
---[NoImage] [info]: ref B L1: 93.8% 6.2%


Оригінал <----------> Ріп





Джерела та подяки: &
ріп відео, оригінальні звук та субтитри - HqF (?), kisluk (рутрекер); українські доріжки - _oles - зведення, drakon87 та xSlim - запис з ТБ; українські субтитри - ліцензія, українізований постер - офіційний; фільмографії акторів та інформація про озвучення - Віктор (всі - Гуртом).


ЗАЛИШАЙТЕСЬ ЯКОМОГА ДОВШЕ НА РОЗДАЧІ!

СКАЧАВ САМ - ДАЙ СКАЧАТИ ІНШИМ


 Трекер:    Зареєстрований   

Завантажити / скачати фільм українською



відео для новачків



 Зареєстрований:   2015-04-01 09:37
 Розмір:   6.27 GB 
 Оцінка фільму:   5.5/10 (Голосів: 21)
   
Інші релізи
   Пророк / Next (2007) 2xUkr/Eng | Sub Ukr/Eng _oles  5 / 2   1.97 GB   2013-07-13 20:25 
   Пророк / The Next (2007) weber  3 / 0   1.47 GB   2009-06-27 17:25 
Ваш часовий пояс: GMT + 2 Години

Нова тема   Відповісти