Завантажити та скачати торренти українською


Епідемія / Los últimos días (2013) AVC

Нові коментарі

Нова тема   Відповісти
Автор Повідомлення
Drool 
VIP


З нами з: 17.04.10
Востаннє: 10.12.16
Повідомлень: 1270

2015-03-31 14:25  
Епідемія / Los últimos días (2013) AVC

Жанр: фантастика, трилер, пригодницький
Країна: Іспанія



Кінокомпанія: A3 Media Cine, Morena Films
Режисер: Девід і Алекс Пастор
Актори: Кім Гутьєррес, Хосе Коронажо, Марта Етура, Летісія Долера, Мікель Іґлесіас, Іван Массаґе, Пере Вентура, Луіс Солер, Хвіда, Фара Хамед

Сюжет:
Агорафобія - страх відкритого простору. В наше століття сучасних технології люди більшу частину свого життя проводять в запорошених офісах або у себе вдома дивлячись телевізор, працюючи на комп'ютері або займаючись ще якимось хобі яке не вимагає виходити на свіже повітря.
Молодик на ім'я Марк виявився одним з мільярда "щасливчиків", що захворіли агорофобією або як її прозвали ЗМІ - панікою. Та насправді не той не інший термін не відображає того, що відбувається: адже дана хвороба діє досить просто - вийди на вулицю і ти помреш. У всіх інших випадках людина не відчуває якогось дискомфорту і скажемо перебування в натовпі ніяк не позначається на хворих. Але і цього цілком достатньо щоб розвинути у більшості людей параною, та й продукти рано чи пізно закінчаться. То що ж робити? Прокопати собі шлях до підземних лініях метро і пересуватися там. І герой заручившись підтримкою свого колишнього шефа Енріке відправляється по закинутих тунелях щоб знайти їжу, воду і свою кохану.


Тривалість: 01:42:27
Якість: AVC
Відео:
кодек:
розмір кадру: 1084x454
бітрейт: 2144 кб/с

Аудіо:
мова: українська
переклад: багатоголосий закадровий
кодек: 2.0
бітрейт: 192 кб/с

Джерело озвучення:
MediaInfo
General
Unique ID : 215764668712965562540552439612579208980 (0xA252C37E028BF07D7F85C4EA8AD35F14)
Complete name : /mnt/disk/Video/Los.últimos.días.2013.Ukr.MVO.AVC.mkv
Format : Matroska
Format version : Version 4 / Version 2
File size : 1.67 GiB
Duration : 1h 42mn
Overall bit rate : 2 335 Kbps
Movie name : Епідемія / Los últimos días (2013) AVC (rip by potroks)
Encoded date : UTC 2010-02-22 21:41:31
Writing application : mkvmerge v7.3.0 ('Nouages') 32bit built on Nov 4 2014 12:35:31
Writing library : libebml v1.3.0 + libmatroska v1.4.1
DURATION : 01:42:24.960000000
NUMBER_OF_FRAMES : 192030
NUMBER_OF_BYTES : 147479040
_STATISTICS_WRITING_APP : mkvmerge v7.3.0 ('Nouages') 32bit built on Nov 4 2014 12:35:31
_STATISTICS_WRITING_DATE_UTC : 2015-03-31 11:47:29
_STATISTICS_TAGS : BPS DURATION NUMBER_OF_FRAMES NUMBER_OF_BYTES

Video
ID : 1
Format : AVC
Format/Info : Advanced Video Codec
Format profile : [email protected]
Format settings, CABAC : Yes
Format settings, ReFrames : 12 frames
Codec ID : V_MPEG4/ISO/AVC
Duration : 1h 42mn
Bit rate : 2 144 Kbps
Width : 1 084 pixels
Height : 454 pixels
Display aspect ratio : 2.40:1
Frame rate mode : Constant
Frame rate : 24.000 fps
Color space : YUV
Chroma subsampling : 4:2:0
Bit depth : 8 bits
Scan type : Progressive
Bits/(Pixel*Frame) : 0.182
Stream size : 1.50 GiB (90%)
Title : Епідемія / Los últimos días (2013) AVC (rip by potroks)
Writing library : core 130 r2273 b3065e6
Encoding settings : cabac=1 / ref=12 / deblock=1:-2:-2 / analyse=0x3:0x133 / me=umh / subme=11 / psy=1 / psy_rd=1.02:0.00 / mixed_ref=1 / me_range=48 / chroma_me=1 / trellis=2 / 8x8dct=1 / cqm=0 / deadzone=21,11 / fast_pskip=1 / chroma_qp_offset=-2 / threads=9 / lookahead_threads=6 / sliced_threads=0 / nr=0 / decimate=0 / interlaced=0 / bluray_compat=0 / constrained_intra=0 / bframes=13 / b_pyramid=2 / b_adapt=2 / b_bias=0 / direct=3 / weightb=1 / open_gop=0 / weightp=2 / keyint=250 / keyint_min=23 / scenecut=40 / intra_refresh=0 / rc_lookahead=60 / rc=2pass / mbtree=0 / bitrate=2144 / ratetol=1.0 / qcomp=0.70 / qpmin=0 / qpmax=69 / qpstep=4 / cplxblur=20.0 / qblur=0.5 / vbv_maxrate=20000 / vbv_bufsize=20000 / nal_hrd=none / ip_ratio=1.35 / pb_ratio=1.25 / aq=1:0.80
Default : Yes
Forced : Yes
DURATION : 01:42:27.922000000
NUMBER_OF_FRAMES : 147550
NUMBER_OF_BYTES : 1645597004
_STATISTICS_WRITING_APP : mkvmerge v7.3.0 ('Nouages') 32bit built on Nov 4 2014 12:35:31
_STATISTICS_WRITING_DATE_UTC : 2015-03-31 11:47:29
_STATISTICS_TAGS : BPS DURATION NUMBER_OF_FRAMES NUMBER_OF_BYTES

Audio
ID : 2
Format : AC-3
Format/Info : Audio Coding 3
Mode extension : CM (complete main)
Format settings, Endianness : Big
Codec ID : A_AC3
Duration : 1h 42mn
Bit rate mode : Constant
Bit rate : 192 Kbps
Channel(s) : 2 channels
Channel positions : Front: L R
Sampling rate : 48.0 KHz
Bit depth : 16 bits
Compression mode : Lossy
Stream size : 141 MiB (8%)
Title : Рідна мова (багатоголосий закадровий | 2.0 | 192 кб/с) 2+2
Language : Ukrainian
Default : Yes
Forced : Yes
Скріншоти



Джерело:
Особиста оцінка: 8 - мені сподобалося


 Трекер:    Зареєстрований   

Завантажити / скачати фільм українською



відео для новачків



 Зареєстрований:   2015-03-31 14:25
 Розмір:   1.67 GB 
 Оцінка фільму:   9.1/10 (Голосів: 16)
   
Інші релізи
   Епідемія / Los últimos días (2013) 720p Ukr/Spa AngryBirdsUA  0 / 0   4.06 GB   2014-03-07 16:57 
   Епідемія / Los últimos días (2013) AngryBirdsUA  3 / 0   1.45 GB   2014-03-07 16:32 
ggee64 
Новенький


З нами з: 21.08.14
Востаннє: 30.11.16
Повідомлень: 3

2015-03-31 18:48  
Заміни.
Агорафобія - страх відкритого простору.

Mr. Inceptive 
Новенький


З нами з: 26.09.14
Востаннє: 04.12.16
Повідомлень: 19

2015-03-31 20:50  
Перепрошую за оффтоп, але це конце необхідно. Будь-ласка, встатьте хто-небудь на роздачу. http://toloka.to/t46554-30
Drool 
VIP


З нами з: 17.04.10
Востаннє: 10.12.16
Повідомлень: 1270

2015-03-31 20:57  
Mr. Inceptive написано:
Перепрошую за оффтоп, але це конце необхідно. Будь-ласка, встатьте хто-небудь на роздачу

Там люди стоять на роздачі. Просто у вас рейтинг халявника, який тільки качає і нічого не віддає. Підніміть рейтинг, буде щастя.

Mr. Inceptive 
Новенький


З нами з: 26.09.14
Востаннє: 04.12.16
Повідомлень: 19

2015-03-31 21:02  
Drool
Цитата:
Там люди стоять на роздачі. Просто у вас рейтинг халявника, який тільки качає і нічого не віддає. Підніміть рейтинг, буде щастя.

З інтертелекомом я цього зробит не можу ніяк. Швидкість віддачі ніяка. Трафіку дають менше 2-ох гб на день. Альтернативи поки що немає.

Drool 
VIP


З нами з: 17.04.10
Востаннє: 10.12.16
Повідомлень: 1270

2015-03-31 21:08  
Mr. Inceptive написано:
Трафіку дають менше 2-ох гб на день

Тоді хоча б треба роздавати день через два. Рейтинг не повинен бути нижчим за 0,15. А зазначену вами роздачу спробуйте завантажити через магнет-посилання.

Mr. Inceptive 
Новенький


З нами з: 26.09.14
Востаннє: 04.12.16
Повідомлень: 19

2015-03-31 21:17  
Drool
Цитата:
Тоді хоча б треба роздавати день через два. Рейтинг не повинен бути нижчим за 0,15.

Я не проти. Але річ у тім, що навіть з бажанням роздавати швидкість віддачі буде дуже низька. Менше 1 кб. 3G інтернет - він такий інтернет.

Додано через 3 хвилини 21 секунду:

Drool
Цитата:
А зазначену вами роздачу спробуйте завантажити через магнет-посилання.

Дякую. Працює. До цього, мабуть, я був сліпим.

Drool 
VIP


З нами з: 17.04.10
Востаннє: 10.12.16
Повідомлень: 1270

2015-03-31 21:19  
Якщо якась популярна роздача буде так роздаватися постійно - щось та роздастсья навіть так. І не буде нульовий рейтинг.

Додано через 1 хвилину 19 секунд:

Mr. Inceptive написано:
Дякую. Працює. До цього, мабуть, я був сліпим.

Далеко не всі релізи з магнетою. Тільки ті, в яких трафік і так не враховується.

Osckar1990 
Частий відвідувач


З нами з: 10.12.11
Востаннє: 08.11.16
Повідомлень: 37

2015-03-31 22:07  
то навіть змагнет можна качати?
Dellariver 
Свій


З нами з: 14.01.12
Востаннє: 10.12.16
Повідомлень: 127

2015-04-10 13:41  
Дякую фільм вартий уваги
meolanta 
Новенький


З нами з: 14.06.14
Востаннє: 24.10.16
Повідомлень: 10

2015-04-26 23:08  
Це вже не перший фільм виробництва Іспанії, який мене вразив.
Фільм вартий уваги. Фільм про справжнє кохання на фоні глобальної катастрофи. Але це не робить його "рожевим". Брудні люди, нестача їжи та води, стремління побачити кохану, довгий виснажливий шлях до мети.
Вразила кінцівка!!! Вона вкрай відрізняється від штампованих голівудських хеппіендів.
10 з 10 Happy

Neolo 
Новенький


З нами з: 13.11.10
Востаннє: 09.12.16
Повідомлень: 8

2015-04-27 01:11  
Drool
Реліз жеж фрі ліч, що ви на людину напали?

sergiysergiy 
Частий відвідувач


З нами з: 17.04.10
Востаннє: 06.12.16
Повідомлень: 30

2016-11-08 02:05  
Проясніть мене будь-ласка хто-небудь в одному питанні.
Хто придумує ці дибільні переклади назв фільмів??? Що це за система така називати фільм так, як комусь заманеться??? Той, хто створив фільм, придумав йому назву таку, яку він захотів. Чому не можна просто перекласти назву, а не називати фільм як комусь захотілось???

Стосовно фільму. Фільм просто чудовий! 10 з 10, але звичайно на любителя. Дуже філософський і примушує задуматись про сенс життя.

Ваш часовий пояс: GMT + 2 Години

Нова тема   Відповісти