Завантажити та скачати торренти українською


Особливо тяжкі злочини / High Crimes (2002) 720p Ukr/Eng | Sub Eng

Нові коментарі

Нова тема   Відповісти
Автор Повідомлення
Anonymous 







2015-03-28 14:12  
Особливо тяжкі злочини / High Crimes (2002) 720p Ukr/Eng | Sub Eng



Обкладинка та кружальце blu-ray диску





Жанр: трилер, драма, кримінальний, детектив, військовий
Країна: США



Кінокомпанія: Twentieth Century Fox Film Corporation, Regency Enterprises, New Regency Pictures, Manifest Film Company, Monarch Pictures, Epsilon Motion Pictures
Режисер: Карл Франклін / Carl Franklin
Актори: Ешлі Джадд / Ashley Judd, Морґан Фрімен (Morgan Freeman), Джим Кавізел / Jim Caviezel, Аманда Пітт / Amanda Peet, Брюс Девісон / Bruce Davison, Адам Скотт / Adam Scott, Хуан Карлос Ернандес / Juan Carlos Hernández, Майкл Гастон / Michael Gaston та інші

Сюжет:
Успішна у своїй діяльності адвокат і щаслива дружина Клер Кубик (Ешлі Джадд) приголомшена звісткою про те, що її чоловік Том (Джеймс Кевізел) виявився колишнім бійцем таємного військового підрозділу, жив та переховувся від влади під чужим ім'ям. Його, знаного під ім'ям Рональд Чапмен, звинувачують у військовому злочині - вбивстві дев'яти цивільних сальвадорців у 1988 році під час таємної операції уряду США у цій країні.
Оскільки Клер готується сама захищати свого чоловіка у військовому суді, їй на допомогу приходить колишній військовий адвокат Чарлі Граймс (Морган Фрімен), який невдоволений місцевим військовим керівництвом і грає за своїми правилами...


Рейтинг MPAA: PG-13 - дітям до 13 років перегляд не бажаний
Вікова категорія: 12+

Тривалість: 01:55:13
Якість: 720p
Відео:
кодек:
розмір кадру: 1280 х 548
бітрейт: 7381 кбіт/с

Аудіо # 1:
мова: українська
переклад: багатоголосий закадровий
ролі озвучили: Владислав Пупков, Ігор Волков і Лідія Муращенко
кодек: 5.1
бітрейт: 384 кбіт/с

Аудіо # 2:
мова: англійська
переклад: оригінал
кодек: 5.1
бітрейт: 1509 кбіт/с

Аудіо # 3:
мова: англійська
переклад: коментарі режисера Карла Франкліна
кодек: 2.0
бітрейт: 224 кбіт/с

Субтитри:
мова: англійська
тип: програмні (м'які)
формат: *.srt

Збережено оригінальні розділи, як на Blu-ray.
MediaInfo та log
Код:
General
Unique ID                   : 236343174300473003498115112773887333890 (0xB1CE0A26BE603F4083C9A60E52121602)
Complete name               : High Crimes (2002) [Ukr,Eng sub.Eng] 720p [Hurtom & HDClub].mkv
Format                      : Matroska
Format version              : Version 4 / Version 2
File size                   : 7.64 GiB
Duration                    : 1h 55mn
Overall bit rate            : 9 486 Kbps
Movie name                  : Особливо тяжкі злочини / High Crimes (2002) [Ukr,Eng sub.Eng] 720p [Hurtom & HDClub]
Encoded date                : UTC 2015-03-28 08:08:21
Writing application         : mkvmerge v7.8.0 ('River Man') 64bit built on Mar 27 2015 16:31:37
Writing library             : libebml v1.3.1 + libmatroska v1.4.2
DURATION                    : 01:55:13.920000000
NUMBER_OF_FRAMES            : 216060
NUMBER_OF_BYTES             : 331868160
_STATISTICS_WRITING_APP     : mkvmerge v7.8.0 ('River Man') 64bit built on Mar 27 2015 16:31:37
_STATISTICS_WRITING_DATE_UT : 2015-03-28 08:08:21
_STATISTICS_TAGS            : BPS DURATION NUMBER_OF_FRAMES NUMBER_OF_BYTES

Video
ID                          : 1
Format                      : AVC
Format/Info                 : Advanced Video Codec
Format profile              : [email protected]
Format settings, CABAC      : Yes
Format settings, ReFrames   : 9 frames
Codec ID                    : V_MPEG4/ISO/AVC
Duration                    : 1h 55mn
Bit rate                    : 7 381 Kbps
Width                       : 1 280 pixels
Height                      : 548 pixels
Display aspect ratio        : 2.35:1
Frame rate mode             : Constant
Frame rate                  : 23.976 fps
Color space                 : YUV
Chroma subsampling          : 4:2:0
Bit depth                   : 8 bits
Scan type                   : Progressive
Bits/(Pixel*Frame)          : 0.439
Stream size                 : 5.78 GiB (76%)
Title                       : Особливо тяжкі злочини / High Crimes (2002) 720p [HDClub-Andrew Placid]
Writing library             : core 98 r1629kMod 2e81ce1
Encoding settings           : cabac=1 / ref=9 / deblock=1:-3:-3 / analyse=0x3:0x113 / me=umh / subme=10 / psy=1 / psy_rd=1.10:0.10 / mixed_ref=1 / me_range=32 / chroma_me=1 / trellis=2 / 8x8dct=1 / cqm=0 / deadzone=21,11 / fast_pskip=0 / chroma_qp_offset=-3 / threads=6 / sliced_threads=0 / nr=0 / decimate=0 / interlaced=0 / constrained_intra=0 / bframes=10 / b_pyramid=2 / b_adapt=2 / b_bias=0 / direct=3 / weightb=1 / weightp=2 / keyint=250 / keyint_min=25 / scenecut=40 / intra_refresh=0 / rc=2pass / mbtree=0 / bitrate=7381 / ratetol=1.0 / qcomp=0.60 / qpmin=10 / qpmax=51 / qpstep=4 / cplxblur=20.0 / qblur=0.5 / ip_ratio=1.40 / pb_ratio=1.30 / aq=1:0.60
Language                    : English
Default                     : Yes
Forced                      : No
DURATION                    : 01:55:13.949000000
NUMBER_OF_FRAMES            : 165769
NUMBER_OF_BYTES             : 6366092486
_STATISTICS_WRITING_APP     : mkvmerge v7.8.0 ('River Man') 64bit built on Mar 27 2015 16:31:37
_STATISTICS_WRITING_DATE_UT : 2015-03-28 08:08:21
_STATISTICS_TAGS            : BPS DURATION NUMBER_OF_FRAMES NUMBER_OF_BYTES

Audio #1
ID                          : 2
Format                      : AC-3
Format/Info                 : Audio Coding 3
Mode extension              : CM (complete main)
Format settings, Endianness : Big
Codec ID                    : A_AC3
Duration                    : 1h 55mn
Bit rate mode               : Constant
Bit rate                    : 384 Kbps
Channel(s)                  : 6 channels
Channel positions           : Front: L C R, Side: L R, LFE
Sampling rate               : 48.0 KHz
Bit depth                   : 16 bits
Compression mode            : Lossy
Stream size                 : 316 MiB (4%)
Title                       : MVO [2+2] 5.1 384 kbps [Hurtom-Lan]
Language                    : Ukrainian
Default                     : Yes
Forced                      : No

Audio #2
ID                          : 3
Format                      :
Format/Info                 : Digital Theater Systems
Mode                        : 16
Format settings, Endianness : Big
Codec ID                    : A_DTS
Duration                    : 1h 55mn
Bit rate mode               : Constant
Bit rate                    : 1 509 Kbps
Channel(s)                  : 6 channels
Channel positions           : Front: L C R, Side: L R, LFE
Sampling rate               : 48.0 KHz
Bit depth                   : 24 bits
Compression mode            : Lossy
Stream size                 : 1.21 GiB (16%)
Title                       : Original 5.1 1509 kbps
Language                    : English
Default                     : No
Forced                      : No

Audio #3
ID                          : 4
Format                      : AC-3
Format/Info                 : Audio Coding 3
Mode extension              : CM (complete main)
Format settings, Endianness : Big
Codec ID                    : A_AC3
Duration                    : 1h 55mn
Bit rate mode               : Constant
Bit rate                    : 224 Kbps
Channel(s)                  : 2 channels
Channel positions           : Front: L R
Sampling rate               : 48.0 KHz
Bit depth                   : 16 bits
Compression mode            : Lossy
Stream size                 : 185 MiB (2%)
Title                       : [Commentary by Director Carl Franklin] 2.0 224 kbps
Language                    : English
Default                     : No
Forced                      : No

Text
ID                          : 5
Format                      : UTF-8
Codec ID                    : S_TEXT/UTF8
Codec ID/Info               : UTF-8 Plain Text
Language                    : English
Default                     : No
Forced                      : No

Menu
00:00:00.000                : en:Massacre (Main Titles)
00:04:09.040                : en:The Defense Attorney
00:07:42.212                : en:Someone in the House
00:09:34.115                : en:Under Arrest
00:12:13.775                : en:Jackie
00:13:51.247                : en:San Lazaro
00:16:03.379                : en:Ron or Tom?
00:18:57.636                : en:Military Law
00:21:13.772                : en:Tom's Story
00:25:38.328                : en:Charlie Grimes
00:29:09.289                : en:The Wild Card
00:35:08.273                : en:Dead Witnesses
00:37:00.218                : en:The Deal
00:38:57.126                : en:Intruder
00:40:18.875                : en:Unethical Repartee
00:41:42.041                : en:The Polygraph Test
00:42:57.658                : en:A Flawed Investigation
00:47:54.205                : en:Lying Without Lying
00:51:12.194                : en:Embry's Friends
00:55:27.908                : en:Sick Things
00:57:53.929                : en:The Witness
01:01:33.440                : en:A Reason to Slip
01:05:05.360                : en:Inadmissible Evidence
01:09:16.069                : en:General Marks
01:10:13.376                : en:Gambit
01:12:00.316                : en:The Cover-Up
01:17:10.918                : en:Drunk Again
01:19:04.406                : en:The "Accident"
01:22:04.169                : en:Merry Christmas
01:24:27.020                : en:Classified Documents
01:27:13.728                : en:A Matter of Record
01:32:13.695                : en:The Department's Decision
01:35:37.482                : en:The Ambidextrous Killer
01:40:06.417                : en:Trained to Kill
01:47:16.472                : en:Grimes & Grimaldi
01:50:23.700                : en:End Titles


Код:
-[NoImage] [info]: frame I:1273 Avg QP:16.15 size:123924
-[NoImage] [info]: frame P:33890 Avg QP:17.93 size: 61731
-[NoImage] [info]: frame B:130606 Avg QP:20.18 size: 31517
-[NoImage] [info]: consecutive B-frames: 1.5% 2.4% 4.6% 21.4% 9.5% 39.3% 4.2% 12.1% 1.9% 1.8% 1.4%
-[NoImage] [info]: mb I I16..4: 24.5% 59.8% 15.7%
-[NoImage] [info]: mb P I16..4: 1.3% 29.1% 2.0% P16..4: 24.8% 23.3% 13.1% 0.0% 0.0% skip: 6.5%
-[NoImage] [info]: mb B I16..4: 0.0% 5.0% 0.3% B16..8: 42.5% 16.0% 5.3% direct:12.4% skip:18.6% L0:44.6% L1:42.2% BI:13.2%
-[NoImage] [info]: 8x8 transform intra:89.5% inter:59.9%
-[NoImage] [info]: direct mvs spatial:98.4% temporal:1.6%
-[NoImage] [info]: coded y,uvDC,uvAC intra: 96.0% 81.8% 54.5% inter: 53.5% 39.9% 9.1%
-[NoImage] [info]: i16 v,h,dc,p: 28% 8% 31% 34%
-[NoImage] [info]: i8 v,h,dc,ddl,ddr,vr,hd,vl,hu: 11% 8% 16% 9% 12% 11% 11% 10% 11%
-[NoImage] [info]: i4 v,h,dc,ddl,ddr,vr,hd,vl,hu: 37% 7% 5% 7% 10% 10% 9% 8% 8%
-[NoImage] [info]: i8c dc,h,v,p: 40% 26% 20% 14%
-[NoImage] [info]: Weighted P-Frames: Y:11.2%
-[NoImage] [info]: ref P L0: 42.0% 11.9% 17.5% 8.8% 6.0% 5.0% 3.7% 2.7% 2.2% 0.2% 0.0%
-[NoImage] [info]: ref B L0: 63.6% 14.6% 8.9% 4.7% 3.6% 2.8% 1.4% 0.3%
-[NoImage] [info]: ref B L1: 88.0% 12.0%




Джерела та подяки: &
ріп відео, оригінальні звук та субтитри - Andrew Placid (HDClub); українська доріжка - Lan - зведення, Technomate, POMEO - запис з ТБ; фільмографії акторів та інформація про озвучення - Віктор (всі - Гуртом).

Особиста оцінка: 7 - мені сподобалося


ЗАЛИШАЙТЕСЬ ЯКОМОГА ДОВШЕ НА РОЗДАЧІ!

СКАЧАВ САМ - ДАЙ СКАЧАТИ ІНШИМ


Срібний реліз (на рейтинг впливає 50% завантаженого)
 Трекер:    Зареєстрований   

Завантажити / скачати фільм українською



відео для новачків



 Зареєстрований:   2015-03-28 14:12
 Розмір:   7.64 GB 
 Оцінка фільму:   5.2/10 (Голосів: 19)
   
Інші релізи
Ваш часовий пояс: GMT + 2 Години

Нова тема   Відповісти