Завантажити та скачати торренти українською


Термінал / The Terminal (2004) 1080p 2xUkr/Eng | Sub Eng

Нові коментарі

Нова тема   Відповісти
Автор Повідомлення
Anonymous 







2015-03-28 09:23  
Термінал / The Terminal (2004) 1080p 2xUkr/Eng | Sub Eng



Оригінальні постери







Жанр: драма, комедія
Країна: США



Кінокомпанія: DreamWorks SKG, Amblin Entertainment, Parkes+MacDonald Image Nation
Режисер: Стівен Спілберґ / Steven Spielberg
Актори: Том Генкс / Tom Hanks, Кетрін Зета-Джонс / Catherine Zeta-Jones, Стенлі Тучі / Stanley Tucci, Чі МакБрайд / Chi McBride, Дієґо Люна / Diego Luna, Баррі Шабака Генлі / Barry Shabaka Henley, Кумар Паллана / Kumar Pallana, Зої Салдана / Zoe Saldana, Едді Джонс / Eddie Jones, Джуд Сікколелла / Jude Ciccolella та інші

Сюжет:
Фільм культового режисера Стівена Спілберґа. Віктор Наворскі, мешканець однієї з країн Східної Європи, прибуває до нью-йоркського аеропорту Кеннеді. За час перельоту до Америки в його державі відбувається військовий переворот, і тепер він не може ні повернутися додому, ні потрапити в США. Віктор вимушений залишитися у терміналі аеропорту. Там він починає нове життя – знаходить друзів, наживає ворогів і, навіть, закохується...


Рейтинг MPAA: PG-13 - дітям до 13 років перегляд не бажаний
Вікова категорія: 12+

Тривалість: 02:08:45
Якість: 1080p [DON]
Відео:
кодек:
розмір кадру: 1920 х 1040
бітрейт: 22 Мбіт/с

Аудіо # 1:
мова: українська
переклад: багатоголосий закадровий
кодек: 2.0
бітрейт: 192 кбіт/с

Аудіо # 2: Новий канал
мова: українська
переклад: двоголосий закадровий
ролі озвучили: Андрій Самінін і Наталя Ярошенко
кодек: 2.0
бітрейт: 192 кбіт/с

Аудіо # 3:
мова: англійська
переклад: оригінал
кодек: 5.1
бітрейт: 1509 кбіт/с

Субтитри:
мова: англійська (повні, SDH)
тип: програмні (м'які)
формат: *.srt

Збережено оригінальні розділи, як на Blu-ray.
MediaInfo
Код:
General
Unique ID                   : 228888441758206938057443972271081940328 (0xAC324F75C2959D21B3689C765D7A6568)
Complete name               : The Terminal (2004) [2xUkr,Eng sub.Eng] 1080p [Hurtom & HDClub].mkv
Format                      : Matroska
Format version              : Version 4 / Version 2
File size                   : 21.5 GiB
Duration                    : 2h 8mn
Overall bit rate            : 23.9 Mbps
Movie name                  : Термінал / The Terminal (2004) [2xUkr,Eng sub.Eng] 1080p [Hurtom & HDClub]
Encoded date                : UTC 2015-03-27 06:28:15
Writing application         : mkvmerge v7.7.0 ('Six Voices') 64bit built on Feb 28 2015 23:39:33
Writing library             : libebml v1.3.1 + libmatroska v1.4.2
Attachements                : cover.jpg
DURATION                    : 02:00:29.931000000
NUMBER_OF_FRAMES            : 1472
NUMBER_OF_BYTES             : 51389
_STATISTICS_WRITING_APP     : mkvmerge v7.7.0 ('Six Voices') 64bit built on Feb 28 2015 23:39:33
_STATISTICS_WRITING_DATE_UT : 2015-03-27 06:28:15
_STATISTICS_TAGS            : BPS DURATION NUMBER_OF_FRAMES NUMBER_OF_BYTES

Video
ID                          : 1
Format                      : AVC
Format/Info                 : Advanced Video Codec
Format profile              : [email protected]
Format settings, CABAC      : Yes
Format settings, ReFrames   : 4 frames
Codec ID                    : V_MPEG4/ISO/AVC
Duration                    : 2h 8mn
Bit rate                    : 22.0 Mbps
Width                       : 1 920 pixels
Height                      : 1 040 pixels
Display aspect ratio        : 1.85:1
Frame rate mode             : Constant
Frame rate                  : 23.976 fps
Color space                 : YUV
Chroma subsampling          : 4:2:0
Bit depth                   : 8 bits
Scan type                   : Progressive
Bits/(Pixel*Frame)          : 0.460
Stream size                 : 19.3 GiB (90%)
Title                       : Термінал / The Terminal / Терминал (2004) 1080p [DON]
Writing library             : core 142 r2409+42 04be48a tMod [[email protected] X86_64]
Encoding settings           : cabac=1 / ref=4 / deblock=1:-3:-3 / analyse=0x3:0x133 / me=umh / subme=10 / psy=1 / fade_compensate=0.00 / psy_rd=1.10:0.00 / mixed_ref=1 / me_range=32 / chroma_me=1 / trellis=2 / 8x8dct=1 / cqm=0 / deadzone=21,11 / fast_pskip=0 / chroma_qp_offset=-2 / threads=12 / lookahead_threads=3 / sliced_threads=0 / nr=0 / decimate=1 / interlaced=0 / bluray_compat=0 / constrained_intra=0 / fgo=0 / bframes=11 / b_pyramid=2 / b_adapt=2 / b_bias=0 / direct=3 / weightb=1 / open_gop=0 / weightp=2 / keyint=241 / keyint_min=23 / scenecut=40 / intra_refresh=0 / rc_lookahead=60 / rc=2pass / mbtree=0 / bitrate=22000 / ratetol=1.0 / qcomp=0.75 / qpmin=0:0:0 / qpmax=69:69:69 / qpstep=4 / cplxblur=20.0 / qblur=0.5 / vbv_maxrate=50000 / vbv_bufsize=62500 / nal_hrd=none / filler=0 / ip_ratio=1.20 / pb_ratio=1.10 / aq=1:0.70 / aq-sensitivity=10.00 / aq-factor=1.00:1.00:1.00 / aq2=0 / aq3=0 / zones=174844,185234,q=26
Language                    : English
Default                     : Yes
Forced                      : No
DURATION                    : 02:08:45.843000000
NUMBER_OF_FRAMES            : 185235
NUMBER_OF_BYTES             : 21230403713
_STATISTICS_WRITING_APP     : mkvmerge v7.7.0 ('Six Voices') 64bit built on Feb 28 2015 23:39:33
_STATISTICS_WRITING_DATE_UT : 2015-03-27 06:28:15
_STATISTICS_TAGS            : BPS DURATION NUMBER_OF_FRAMES NUMBER_OF_BYTES

Audio #1
ID                          : 2
Format                      : AC-3
Format/Info                 : Audio Coding 3
Format profile              : Dolby Digital
Mode extension              : CM (complete main)
Format settings, Endianness : Big
Codec ID                    : A_AC3
Duration                    : 2h 8mn
Bit rate mode               : Constant
Bit rate                    : 192 Kbps
Channel(s)                  : 2 channels
Channel positions           : Front: L R
Sampling rate               : 48.0 KHz
Bit depth                   : 16 bits
Compression mode            : Lossy
Stream size                 : 177 MiB (1%)
Title                       : MVO [Inter] 2.0 192 kbps [Hurtom-DеLight]
Language                    : Ukrainian
Default                     : Yes
Forced                      : No

Audio #2
ID                          : 3
Format                      : AC-3
Format/Info                 : Audio Coding 3
Format profile              : Dolby Digital
Mode extension              : CM (complete main)
Format settings, Endianness : Big
Codec ID                    : A_AC3
Duration                    : 2h 8mn
Bit rate mode               : Constant
Bit rate                    : 192 Kbps
Channel(s)                  : 2 channels
Channel positions           : Front: L R
Sampling rate               : 48.0 KHz
Bit depth                   : 16 bits
Compression mode            : Lossy
Stream size                 : 177 MiB (1%)
Title                       : DVO [Novyj] 2.0 192 kbps [Hurtom-DеLight]
Language                    : Ukrainian
Default                     : No
Forced                      : No

Audio #3
ID                          : 4
Format                      :
Format/Info                 : Digital Theater Systems
Mode                        : 16
Format settings, Endianness : Big
Codec ID                    : A_DTS
Duration                    : 2h 8mn
Bit rate mode               : Constant
Bit rate                    : 1 509 Kbps
Channel(s)                  : 6 channels
Channel positions           : Front: L C R, Side: L R, LFE
Sampling rate               : 48.0 KHz
Bit depth                   : 24 bits
Compression mode            : Lossy
Stream size                 : 1.36 GiB (6%)
Title                       : Original 5.1 1509 kbps
Language                    : English
Default                     : No
Forced                      : No

Text #1
ID                          : 5
Format                      : UTF-8
Codec ID                    : S_TEXT/UTF8
Codec ID/Info               : UTF-8 Plain Text
Language                    : English
Default                     : No
Forced                      : No

Text #2
ID                          : 6
Format                      : UTF-8
Codec ID                    : S_TEXT/UTF8
Codec ID/Info               : UTF-8 Plain Text
Title                       : SDH
Language                    : English
Default                     : No
Forced                      : No

Menu
00:00:00.000                : en:Main Title
00:03:15.279                : en:Crack in the System
00:08:59.498                : en:America Closed
00:14:02.259                : en:Do You Have an Appointment?
00:15:27.469                : en:Gate 67
00:18:34.656                : en:Acting Field Commissioner
00:20:25.850                : en:Unacceptable
00:23:04.467                : en:Unhooking the Fish
00:27:40.534                : en:Sensible Heels
00:29:42.072                : en:The Carts
00:32:28.781                : en:50/50
00:35:06.396                : en:You Feed Me, I'll Feed You
00:41:22.355                : en:Crowded
00:47:21.506                : en:Observations
00:52:10.378                : en:The Position Has Been Filled
00:57:34.285                : en:After Hours
01:00:36.550                : en:Rewriting History
01:06:00.207                : en:The Inspection
01:16:04.769                : en:If I Stay, You Stay
01:18:18.861                : en:The Dinner Appointment
01:29:05.883                : en:Tokens of Love
01:32:54.069                : en:Why Viktor Navorski?
01:35:16.211                : en:Keeping Promises
01:42:00.323                : en:The War Is Over
01:48:59.700                : en:Family
01:51:01.280                : en:Viktor's Leaving!
01:57:52.149                : en:161 Lexington
02:01:33.912                : en:End Credits
Оригінал <----------> Ріп








Джерела та подяки: &
ріп відео, оригінальні звук та субтитри - DON (HDbits), Skazhutin (HDClub); українські доріжки - DеLight - зведення, dvorsky, POMEO - запис з ТБ; фільмографії акторів та інформація про озвучення - Віктор, Neo777 (всі - Гуртом).


ЗАЛИШАЙТЕСЬ ЯКОМОГА ДОВШЕ НА РОЗДАЧІ!

СКАЧАВ САМ - ДАЙ СКАЧАТИ ІНШИМ


Срібний реліз (на рейтинг впливає 50% завантаженого)
 Трекер:    Зареєстрований   

Завантажити / скачати фільм українською



відео для новачків



 Зареєстрований:   2015-03-28 09:23
 Розмір:   21.48 GB 
 Оцінка фільму:   3.7/10 (Голосів: 15)
   
Інші релізи
   Термінал / The Terminal (2004) 720p 2xUkr/Eng | Sub Eng igor911  2 / 1   15.29 GB   2015-04-03 06:25 
   Термінал / The Terminal (2004) 2xUkr DеLight  19 / 0   2.18 GB   2014-05-17 18:20 
Anonymous 







2015-04-03 06:31  
720p
Ваш часовий пояс: GMT + 2 Години

Нова тема   Відповісти