Завантажити та скачати торренти українською


Червоний штат / Red State (2011) 1080p Ukr/Eng | Sub Ukr/Eng

Нові коментарі

Нова тема   Відповісти
Автор Повідомлення
Anonymous 







2015-03-22 18:02  
Червоний штат / Red State (2011) 1080p Ukr/Eng | Sub Ukr/Eng

Червоний штат / Red State (2011) 1080p Ukr/Eng | Sub Ukr/Eng


Жанр: трилер, жахи, бойовик
Країна: США



Кіностудія / кінокомпанія: Harvey Boys, NVSH Productions
Режисер: Кевін Сміт (Kevin Smith)
Актори: Мелісса Лео (Melissa Leo), Кевін Поллак (Kevin Pollak), Джон Ґудман (John Goodman), Майкл Анґарано (Michael Angarano), Кайл Ґаллнер (Kyle Gallner), Стівен Рут (Stephen Root), Дженніфер Швальбах Сміт (Jennifer Schwalbach Smith ) та інші.

Сюжет:
Закинувши спроби зняти чергову комедію відомий своїми ексцентричними стрічками режисер Кевін Сміт вдався до іншого жанру - фільму жахів, хоч і з великою долею сатири, спрямованої на фанатиків християнства та консервативні цінності в цілому. Зав'язка досить проста - троє школярів знаходять оголошення, в якому доросла жінка запрошує молодих хлопців до себе додому, щоб влаштувати секс-оргію. Зрадівши такому чудовому шансу втратити цноту головні герої відправляються за вказаною адресою, щоб потрапити там в пастку секти християнських фанатиків, які вирішили боротись з розпустою досить негуманним способом.


Тривалість: 01:28:32
Відео:
кодек:
розмір кадру: 1920 х 1036
бітрейт: 11300 кб/с

Аудіо # 1:
мова: українська
переклад: багатоголосий закадровий
кодек: 2.0
бітрейт: 192 кб/с

Аудіо # 2:
мова: англійська
переклад: оригінал
кодек: 5.1
бітрейт: 1509 кб/с

Субтитри:
мова: українська
тип: програмні (м'які)
формат: *.srt

Субтитри:
мова: англійська
тип: програмні (м'які)
формат: *.srt
MediaInfo
General
Unique ID : 234540995246081996634907405497073033682 (0xB072F3DD23E2DB9B82028426456E61D2)
Complete name : D:\Red State (2011) 1080p [Ukr.Eng] [Sub Ukr.Eng] [Hurtom].mkv
Format : Matroska
Format version : Version 4 / Version 2
File size : 8.03 GiB
Duration : 1h 28mn
Overall bit rate : 13.0 Mbps
Encoded date : UTC 2015-03-22 15:38:56
Writing application : mkvmerge v7.6.0 ('Garden of Dreams') 64bit built on Feb 8 2015 13:04:34
Writing library : libebml v1.3.1 + libmatroska v1.4.2
Attachements : poster.jpg
DURATION : 01:28:32.352000000
NUMBER_OF_FRAMES : 166011
NUMBER_OF_BYTES : 127496448
_STATISTICS_WRITING_APP : mkvmerge v7.6.0 ('Garden of Dreams') 64bit built on Feb 8 2015 13:04:34
_STATISTICS_WRITING_DATE_UT : 2015-03-22 15:38:56
_STATISTICS_TAGS : BPS DURATION NUMBER_OF_FRAMES NUMBER_OF_BYTES

Video
ID : 1
Format : AVC
Format/Info : Advanced Video Codec
Format profile : [email protected]
Format settings, CABAC : Yes
Format settings, ReFrames : 4 frames
Codec ID : V_MPEG4/ISO/AVC
Duration : 1h 28mn
Bit rate : 11.3 Mbps
Width : 1 920 pixels
Height : 1 036 pixels
Display aspect ratio : 1.85:1
Frame rate mode : Constant
Frame rate : 23.976 fps
Color space : YUV
Chroma subsampling : 4:2:0
Bit depth : 8 bits
Scan type : Progressive
Bits/(Pixel*Frame) : 0.237
Stream size : 6.82 GiB (85%)
Writing library : core 116 r2074+610 09ac020
Encoding settings : cabac=1 / ref=4 / deblock=1:-3:-3 / analyse=0x3:0x113 / me=umh / subme=10 / psy=1 / fade_compensate=0.00 / psy_rd=1.05:0.10 / mixed_ref=1 / me_range=48 / chroma_me=1 / trellis=2 / 8x8dct=1 / cqm=2 / deadzone=21,11 / fast_pskip=0 / chroma_qp_offset=-2 / threads=12 / sliced_threads=0 / nr=0 / decimate=1 / interlaced=0 / bluray_compat=0 / constrained_intra=0 / fgo=0 / bframes=6 / b_pyramid=2 / b_adapt=2 / b_bias=0 / direct=3 / weightb=1 / open_gop=0 / weightp=2 / keyint=250 / keyint_min=23 / scenecut=40 / intra_refresh=0 / rc_lookahead=60 / rc=2pass / mbtree=1 / bitrate=11305 / ratetol=2.0 / qcomp=0.70 / qpmin=1 / qpmax=63 / qpstep=4 / cplxblur=20.0 / qblur=0.5 / vbv_maxrate=40000 / vbv_bufsize=30000 / nal_hrd=none / ip_ratio=1.40 / aq=2:1.00
Language : English
Default : Yes
Forced : Yes
DURATION : 01:28:32.303000000
NUMBER_OF_FRAMES : 127368
NUMBER_OF_BYTES : 7489851752
_STATISTICS_WRITING_APP : mkvmerge v7.6.0 ('Garden of Dreams') 64bit built on Feb 8 2015 13:04:34
_STATISTICS_WRITING_DATE_UT : 2015-03-22 15:38:56
_STATISTICS_TAGS : BPS DURATION NUMBER_OF_FRAMES NUMBER_OF_BYTES

Audio #1
ID : 2
Format : AC-3
Format/Info : Audio Coding 3
Mode extension : CM (complete main)
Format settings, Endianness : Big
Codec ID : A_AC3
Duration : 1h 28mn
Bit rate mode : Constant
Bit rate : 192 Kbps
Channel(s) : 2 channels
Channel positions : Front: L R
Sampling rate : 48.0 KHz
Bit depth : 16 bits
Compression mode : Lossy
Stream size : 122 MiB (1%)
Language : Ukrainian
Default : Yes
Forced : No

Audio #2
ID : 3
Format :
Format/Info : Digital Theater Systems
Mode : 16
Format settings, Endianness : Big
Codec ID : A_DTS
Duration : 1h 28mn
Bit rate mode : Constant
Bit rate : 1 509 Kbps
Channel(s) : 6 channels
Channel positions : Front: L C R, Side: L R, LFE
Sampling rate : 48.0 KHz
Bit depth : 24 bits
Compression mode : Lossy
Stream size : 956 MiB (12%)
Language : English
Default : No
Forced : No

Text #1
ID : 4
Format : UTF-8
Codec ID : S_TEXT/UTF8
Codec ID/Info : UTF-8 Plain Text
Language : Ukrainian
Default : Yes
Forced : Yes

Text #2
ID : 5
Format : UTF-8
Codec ID : S_TEXT/UTF8
Codec ID/Info : UTF-8 Plain Text
Language : English
Default : No
Forced : No


Джерело:


 Трекер:    Зареєстрований   

Завантажити / скачати фільм українською



відео для новачків



 Зареєстрований:   2015-03-22 18:02
 Розмір:   8.03 GB 
 Оцінка фільму:   6/10 (Голосів: 9)
   
Інші релізи
   Червоний штат / Red State (2011) AngryBirdsUA  5 / 0   1.45 GB   2015-03-22 17:35 
   Червоний штат / Red State (2011) 720p Eng | Sub Ukr/Eng Dim-ON  0 / 0   4.35 GB   2011-11-26 20:14 
UnitedWallabies 
Частий відвідувач


З нами з: 16.12.12
Востаннє: 30.09.16
Повідомлень: 26

2016-02-15 03:52  
Як весело -- і безпечно -- знущатися з християн... Спробував би пан Сміт зняти таке кіно про ісламістів...
Ваш часовий пояс: GMT + 2 Години

Нова тема   Відповісти