Завантажити та скачати торренти українською


Студентка / L'étudiante (1988) Ukr/Fra | Sub Eng

Нові коментарі

Нова тема   Відповісти
Автор Повідомлення
Anonymous 







2015-03-21 00:47  
Студентка / L'étudiante (1988) Ukr/Fra | Sub Eng



Ще оригінальні постери







Жанр: мелодрама, комедія
Країна: Франція, Італія



Кінокомпанія: TF1 Films Production, Gaumont Production, Reteitalia, Cecchi Gori Group Tiger Cinematografica
Режисер: Клод Піното / Claude Pinoteau
Актори: Софі Марсо / Sophie Marceau, Венсан Ліндон / Vincent Lindon, Елізабет Віталі / Élisabeth Vitali, Жан-Клод Леге / Jean-Claude Leguay, Елен Помпей / Elena Pompei, Роберто Еттіес / Roberto Attias, Наталі Манн / Nathalie Mann та інші

Сюжет:
Валентина виросла, їй виповнився двадцять один рік. Вона підробляє вчителькою і готується до важливих іспитів в університеті. В цей час вона зустрічає Неда, музиканта, який сподівається коли-небудь стати великим композитором. Незважаючи на те, що вони працюють в різний час і насилу знаходять моменти для зустрічей, між ними виникають почуття. І на іспиті в Сорбонні Валентина аналізує свої відносини з Недом при розгляді своєї дисертації.


Вікова категорія: 16+

Тривалість: 01:43:58
Якість:
Відео:
кодек: build 65
розмір кадру: 720 х 384
бітрейт: 1700 кбіт/с

Аудіо # 1:
мова: українська
переклад: двоголосий закадровий
кодек: 2.0
бітрейт: 192 кбіт/с

Аудіо # 2:
мова: французька
переклад: оригінал
кодек: 2.0
бітрейт: 192 кбіт/с

Субтитри # 1:
мова: англійська (завантажити)
тип: програмні (м'які)
формат: *.srt
MediaInfo
Код:
General
Complete name               : L'etudiante (1988) [Ukr,Fra] [Hurtom & HQClub].avi
Format                      : AVI
Format/Info                 : Audio Video Interleave
File size                   : 1.52 GiB
Duration                    : 1h 43mn
Overall bit rate            : 2 099 Kbps
Movie name                  : Студентка / L'etudiante (1988)
Director                    : igor911&kingsize87
Writing application         : VirtualDubModRus 1.5.10.2 (build 2540/release) VirtualDubMod build 2540/release
Copyright                   : Hurtom & HQClub
Comment                     : 20.03.2015

Video
ID                          : 0
Format                      : MPEG-4 Visual
Format profile              : Advanced [email protected]
Format settings, BVOP       : 1
Format settings, QPel       : No
Format settings, GMC        : No warppoints
Format settings, Matrix     : Custom
Codec ID                    :
Codec ID/Hint               :
Duration                    : 1h 43mn
Bit rate                    : 1 701 Kbps
Width                       : 720 pixels
Height                      : 384 pixels
Display aspect ratio        : 1.85:1
Frame rate                  : 23.976 fps
Color space                 : YUV
Chroma subsampling          : 4:2:0
Bit depth                   : 8 bits
Scan type                   : Progressive
Compression mode            : Lossy
Bits/(Pixel*Frame)          : 0.257
Stream size                 : 1.24 GiB (81%)
Writing library             : 65

Audio #1
ID                          : 1
Format                      : AC-3
Format/Info                 : Audio Coding 3
Mode extension              : CM (complete main)
Format settings, Endianness : Big
Codec ID                    : 2000
Duration                    : 1h 43mn
Bit rate mode               : Constant
Bit rate                    : 192 Kbps
Channel(s)                  : 2 channels
Channel positions           : Front: L R
Sampling rate               : 48.0 KHz
Bit depth                   : 16 bits
Compression mode            : Lossy
Stream size                 : 143 MiB (9%)
Alignment                   : Split accross interleaves
Interleave, duration        : 42 ms (1.00 video frame)
Interleave, preload duratio : 500 ms
Language                    : Не определен

Audio #2
ID                          : 2
Format                      : AC-3
Format/Info                 : Audio Coding 3
Mode extension              : CM (complete main)
Format settings, Endianness : Big
Codec ID                    : 2000
Duration                    : 1h 43mn
Bit rate mode               : Constant
Bit rate                    : 192 Kbps
Channel(s)                  : 2 channels
Channel positions           : Front: L R
Sampling rate               : 48.0 KHz
Bit depth                   : 16 bits
Compression mode            : Lossy
Stream size                 : 143 MiB (9%)
Alignment                   : Split accross interleaves
Interleave, duration        : 42 ms (1.00 video frame)
Interleave, preload duratio : 500 ms




Джерела та подяки: &
ріп відео, оригінальні звук та субтитри - kingsize87 (HQClub); українська доріжка - MutuLI - зведення, sando7 - запис з ТБ (обоє - Гуртом).


ЗАЛИШАЙТЕСЬ ЯКОМОГА ДОВШЕ НА РОЗДАЧІ!

СКАЧАВ САМ - ДАЙ СКАЧАТИ ІНШИМ


Срібний реліз (на рейтинг впливає 50% завантаженого)
 Трекер:    Зареєстрований   

Завантажити / скачати фільм українською



відео для новачків



 Зареєстрований:   2015-03-21 00:47
 Розмір:   1.52 GB 
 Оцінка фільму:   5.5/10 (Голосів: 21)
   
Інші релізи
   Студентка / L'étudiante (1988) 720p Ukr/Fra | Sub Eng/Fra igor911  0 / 0   8.14 GB   2015-03-21 00:34 
don pedro 
Попереджень: 1
Попереджень: 1 


З нами з: 29.06.11
Востаннє: 10.12.16
Повідомлень: 8774

2015-03-22 00:38  
Маю всіх розчарувати: фільм не є продовженням "Буму".
Ваш часовий пояс: GMT + 2 Години

Нова тема   Відповісти