Завантажити та скачати торренти українською


Чорне море / Black Sea (2014) 1080p Ukr/Eng

Нові коментарі

Нова тема   Відповісти
Останній раз роздавалося Назар1988 (2016-12-05)
Автор Повідомлення
Anonymous 







2015-03-19 19:12  
Чорне море / Black Sea (2014) 1080p Ukr/Eng

Чорне море / Black Sea (2014) 1080p Ukr/Eng


Жанр: трилер, пригодницький
Країна: Велика Британія



Кінокомпанія: Focus Features, Film4, Cowboy Films
Режисер: Кевін МакДональд
Актори: Джуд Лоу, Костянтин Хабенський, Скут МакНейрі, Бен Мендельсон, Джоді Уіттакер, Тобайас Мензис, Григорій Добригін, Пауліна Бонев, Джун Сміт, Девід Трелфолл, Майкл Смайлі

Сюжет:
Колишній капітан підводного човна залишився без роботи і перебивається випадковими заробітками. Тому він з радістю приймає пропозицію зібрати команду і відправитися на пошуки субмарини, вантаженої золотом, яка за інформацією нового наймача покоїться на дні Чорного Моря. Але заради такого призу люди готові піти на все, і герой швидко розуміє, що вплутався в смертельно небезпечну гру.


Тривалість: 01:49:44
Якість:
Відео:
кодек:
розмір кадру: 1920 х 1080
бітрейт: 8653 кб/с

Аудіо # 1:
мова: українська
переклад: багатоголосий закадровий
кодек: 2.0
бітрейт: 192 кб/с

Аудіо # 2:
мова: англійська
переклад: оригінал
кодек: 5.1
бітрейт: 1510 кб/с
MediaInfo
General
Unique ID : 212450465144954597634298411517675229801 (0x9FD478A3FB63331590D09A2D2EB2D269)
Complete name : D:\Black Sea (2014) 1080p [Ukr.Eng] [Hurtom].mkv
Format : Matroska
Format version : Version 4 / Version 2
File size : 7.94 GiB
Duration : 1h 49mn
Overall bit rate : 10.4 Mbps
Encoded date : UTC 2015-03-19 16:59:03
Writing application : mkvmerge v7.6.0 ('Garden of Dreams') 64bit built on Feb 8 2015 13:04:34
Writing library : libebml v1.3.1 + libmatroska v1.4.2
DURATION : 01:49:44.480000000
NUMBER_OF_FRAMES : 205765
NUMBER_OF_BYTES : 158027520
_STATISTICS_WRITING_APP : mkvmerge v7.6.0 ('Garden of Dreams') 64bit built on Feb 8 2015 13:04:34
_STATISTICS_WRITING_DATE_UT : 2015-03-19 16:59:03
_STATISTICS_TAGS : BPS DURATION NUMBER_OF_FRAMES NUMBER_OF_BYTES

Video
ID : 1
Format : AVC
Format/Info : Advanced Video Codec
Format profile : [email protected]
Format settings, CABAC : Yes
Format settings, ReFrames : 4 frames
Codec ID : V_MPEG4/ISO/AVC
Duration : 1h 49mn
Bit rate : 8 653 Kbps
Width : 1 920 pixels
Height : 800 pixels
Display aspect ratio : 2.40:1
Frame rate mode : Constant
Frame rate : 25.000 fps
Color space : YUV
Chroma subsampling : 4:2:0
Bit depth : 8 bits
Scan type : Progressive
Bits/(Pixel*Frame) : 0.225
Stream size : 6.47 GiB (82%)
Writing library : core 119 r2106 07efeb4
Encoding settings : cabac=1 / ref=3 / deblock=1:-3:-3 / analyse=0x3:0x133 / me=umh / subme=10 / psy=1 / psy_rd=1.00:0.10 / mixed_ref=1 / me_range=22 / chroma_me=1 / trellis=2 / 8x8dct=1 / cqm=0 / deadzone=21,11 / fast_pskip=0 / chroma_qp_offset=-3 / threads=12 / sliced_threads=0 / nr=0 / decimate=1 / interlaced=0 / bluray_compat=0 / constrained_intra=0 / bframes=3 / b_pyramid=2 / b_adapt=2 / b_bias=0 / direct=3 / weightb=1 / open_gop=0 / weightp=2 / keyint=250 / keyint_min=25 / scenecut=40 / intra_refresh=0 / rc_lookahead=60 / rc=2pass / mbtree=1 / bitrate=8653 / ratetol=1.0 / qcomp=0.60 / qpmin=0 / qpmax=69 / qpstep=4 / cplxblur=20.0 / qblur=0.5 / ip_ratio=1.40 / aq=1:1.00
Language : English
Default : Yes
Forced : No
DURATION : 01:49:44.440000000
NUMBER_OF_FRAMES : 164611
NUMBER_OF_BYTES : 7119177257
_STATISTICS_WRITING_APP : mkvmerge v7.6.0 ('Garden of Dreams') 64bit built on Feb 8 2015 13:04:34
_STATISTICS_WRITING_DATE_UT : 2015-03-19 16:59:03
_STATISTICS_TAGS : BPS DURATION NUMBER_OF_FRAMES NUMBER_OF_BYTES

Audio #1
ID : 2
Format : AC-3
Format/Info : Audio Coding 3
Mode extension : CM (complete main)
Format settings, Endianness : Big
Codec ID : A_AC3
Duration : 1h 49mn
Bit rate mode : Constant
Bit rate : 192 Kbps
Channel(s) : 2 channels
Channel positions : Front: L R
Sampling rate : 48.0 KHz
Bit depth : 16 bits
Compression mode : Lossy
Stream size : 151 MiB (2%)
Language : Ukrainian
Default : Yes
Forced : No

Audio #2
ID : 3
Format :
Format/Info : Digital Theater Systems
Mode : 16
Format settings, Endianness : Big
Codec ID : A_DTS
Duration : 1h 49mn
Bit rate mode : Constant
Bit rate : 1 510 Kbps
Channel(s) : 6 channels
Channel positions : Front: L C R, Side: L R, LFE
Sampling rate : 48.0 KHz
Bit depth : 24 bits
Compression mode : Lossy
Stream size : 1.16 GiB (15%)
Language : English
Default : No
Forced : No

General
Unique ID : 212450465144954597634298411517675229801 (0x9FD478A3FB63331590D09A2D2EB2D269)
Complete name : D:\Black Sea (2014) 1080p [Ukr.Eng] [Hurtom].mkv
Format : Matroska
Format version : Version 4 / Version 2
File size : 7.94 GiB
Duration : 1h 49mn
Overall bit rate : 10.4 Mbps
Encoded date : UTC 2015-03-19 16:59:03
Writing application : mkvmerge v7.6.0 ('Garden of Dreams') 64bit built on Feb 8 2015 13:04:34
Writing library : libebml v1.3.1 + libmatroska v1.4.2
DURATION : 01:49:44.480000000
NUMBER_OF_FRAMES : 205765
NUMBER_OF_BYTES : 158027520
_STATISTICS_WRITING_APP : mkvmerge v7.6.0 ('Garden of Dreams') 64bit built on Feb 8 2015 13:04:34
_STATISTICS_WRITING_DATE_UT : 2015-03-19 16:59:03
_STATISTICS_TAGS : BPS DURATION NUMBER_OF_FRAMES NUMBER_OF_BYTES

Video
ID : 1
Format : AVC
Format/Info : Advanced Video Codec
Format profile : [email protected]
Format settings, CABAC : Yes
Format settings, ReFrames : 4 frames
Codec ID : V_MPEG4/ISO/AVC
Duration : 1h 49mn
Bit rate : 8 653 Kbps
Width : 1 920 pixels
Height : 800 pixels
Display aspect ratio : 2.40:1
Frame rate mode : Constant
Frame rate : 25.000 fps
Color space : YUV
Chroma subsampling : 4:2:0
Bit depth : 8 bits
Scan type : Progressive
Bits/(Pixel*Frame) : 0.225
Stream size : 6.47 GiB (82%)
Writing library : core 119 r2106 07efeb4
Encoding settings : cabac=1 / ref=3 / deblock=1:-3:-3 / analyse=0x3:0x133 / me=umh / subme=10 / psy=1 / psy_rd=1.00:0.10 / mixed_ref=1 / me_range=22 / chroma_me=1 / trellis=2 / 8x8dct=1 / cqm=0 / deadzone=21,11 / fast_pskip=0 / chroma_qp_offset=-3 / threads=12 / sliced_threads=0 / nr=0 / decimate=1 / interlaced=0 / bluray_compat=0 / constrained_intra=0 / bframes=3 / b_pyramid=2 / b_adapt=2 / b_bias=0 / direct=3 / weightb=1 / open_gop=0 / weightp=2 / keyint=250 / keyint_min=25 / scenecut=40 / intra_refresh=0 / rc_lookahead=60 / rc=2pass / mbtree=1 / bitrate=8653 / ratetol=1.0 / qcomp=0.60 / qpmin=0 / qpmax=69 / qpstep=4 / cplxblur=20.0 / qblur=0.5 / ip_ratio=1.40 / aq=1:1.00
Language : English
Default : Yes
Forced : No
DURATION : 01:49:44.440000000
NUMBER_OF_FRAMES : 164611
NUMBER_OF_BYTES : 7119177257
_STATISTICS_WRITING_APP : mkvmerge v7.6.0 ('Garden of Dreams') 64bit built on Feb 8 2015 13:04:34
_STATISTICS_WRITING_DATE_UT : 2015-03-19 16:59:03
_STATISTICS_TAGS : BPS DURATION NUMBER_OF_FRAMES NUMBER_OF_BYTES

Audio #1
ID : 2
Format : AC-3
Format/Info : Audio Coding 3
Mode extension : CM (complete main)
Format settings, Endianness : Big
Codec ID : A_AC3
Duration : 1h 49mn
Bit rate mode : Constant
Bit rate : 192 Kbps
Channel(s) : 2 channels
Channel positions : Front: L R
Sampling rate : 48.0 KHz
Bit depth : 16 bits
Compression mode : Lossy
Stream size : 151 MiB (2%)
Language : Ukrainian
Default : Yes
Forced : No

Audio #2
ID : 3
Format :
Format/Info : Digital Theater Systems
Mode : 16
Format settings, Endianness : Big
Codec ID : A_DTS
Duration : 1h 49mn
Bit rate mode : Constant
Bit rate : 1 510 Kbps
Channel(s) : 6 channels
Channel positions : Front: L C R, Side: L R, LFE
Sampling rate : 48.0 KHz
Bit depth : 24 bits
Compression mode : Lossy
Stream size : 1.16 GiB (15%)
Language : English
Default : No
Forced : No


Джерело:


 Трекер:    Зареєстрований   

Завантажити / скачати фільм українською



відео для новачків



 Зареєстрований:   2015-03-19 19:12
 Розмір:   7.94 GB 
 Оцінка фільму:   7.2/10 (Голосів: 14)
   
Інші релізи
   Чорне море / Black Sea (2014) AngryBirdsUA  5 / 0   1.45 GB   2015-03-19 18:56 
intrino 
Частий відвідувач


З нами з: 09.06.09
Востаннє: 04.12.16
Повідомлень: 28

2015-03-20 01:54  
пардон за офтоп, але щодо країн які приймали участь в зйомках IMDB: Country: UK | USA | Russia
Ваш часовий пояс: GMT + 2 Години

Нова тема   Відповісти