Завантажити та скачати торренти українською


Глибинна зірка шість / DeepStar Six (1988) 720p Ukr/Eng

Нові коментарі

Нова тема   Відповісти
Автор Повідомлення
Anonymous 







2015-03-16 14:08  
Глибинна зірка шість / DeepStar Six (1988) 720p Ukr/Eng



Альтернативний та оригінальний постери





Жанр: жахи, фантастика, бойовик, трилер
Країна: США



Кінокомпанія: Carolco Entertainment, Carolco Pictures
Режисер: Шон С. Каннінгем / Sean S. Cunningham
Актори: Торін Блек / Taurean Blacque, Ненсі Евергард / Nancy Everhard, Ґреґ Евіґен / Greg Evigan, Міґель Феррер / Miguel Ferrer, Ніа Піплз / Nia Peeples, Мет МакКой / Matt McCoy, Сінді Пікет / Cindy Pickett, Маріус Веєрс / Marius Weyers, Ілля Баскін / Ilya Baskin, Том Брей / Thom Bray та інші

Сюжет:
У США спроектували підводну лабораторію - "Глибинну зірку-6". Військово-морський флот погодився фінансувати її створення за умови, що там будуть розміщені секретні військові установки. Опустившись на дно океану, "Глибинна зірка-6" потривожила таємниче глибоководне створіння, яке вирішило винищити персонал станції...


Рейтинг MPAA: R - особам до 17 років обов'язкова присутність батьків або дорослого опікуна
Вікова категорія: 16+

Тривалість: 01:39:33
Якість: 720p [CRiSC]
Відео:
кодек:
розмір кадру: 1280 х 546
бітрейт: 8074 кбіт/с [crf=16.5]

Аудіо # 1:
мова: українська
переклад: двоголосий закадровий
кодек: 2.0
бітрейт: 192 кбіт/с

Аудіо # 2:
мова: англійська
переклад: оригінал
кодек: 2.0
бітрейт: 1509 кбіт/с

Збережено оригінальні розділи, як на Blu-ray.
MediaInfo
Код:
General
Unique ID                   : 175358586902657627391386079455818081517 (0x83ECD5D9A30DAC17A1A6B3D33FB8E4ED)
Complete name               : DeepStar Six (1988) [Ukr,Eng] 720p [Hurtom & HDClub].mkv
Format                      : Matroska
Format version              : Version 4 / Version 2
File size                   : 6.94 GiB
Duration                    : 1h 39mn
Overall bit rate            : 9 973 Kbps
Movie name                  : Глибинна зірка шість / DeepStar Six (1988) [Ukr,Eng] 720p [Hurtom & HDClub]
Encoded date                : UTC 2015-03-16 10:35:29
Writing application         : mkvmerge v7.7.0 ('Six Voices') 64bit built on Feb 28 2015 23:39:33
Writing library             : libebml v1.3.1 + libmatroska v1.4.2
DURATION                    : 01:39:33.792000000
NUMBER_OF_FRAMES            : 186681
NUMBER_OF_BYTES             : 143371008
_STATISTICS_WRITING_APP     : mkvmerge v7.7.0 ('Six Voices') 64bit built on Feb 28 2015 23:39:33
_STATISTICS_WRITING_DATE_UT : 2015-03-16 10:35:29
_STATISTICS_TAGS            : BPS DURATION NUMBER_OF_FRAMES NUMBER_OF_BYTES

Video
ID                          : 1
Format                      : AVC
Format/Info                 : Advanced Video Codec
Format profile              : [email protected]
Format settings, CABAC      : Yes
Format settings, ReFrames   : 11 frames
Codec ID                    : V_MPEG4/ISO/AVC
Duration                    : 1h 39mn
Bit rate                    : 8 074 Kbps
Width                       : 1 280 pixels
Height                      : 546 pixels
Display aspect ratio        : 2.35:1
Frame rate mode             : Constant
Frame rate                  : 23.976 fps
Color space                 : YUV
Chroma subsampling          : 4:2:0
Bit depth                   : 8 bits
Scan type                   : Progressive
Bits/(Pixel*Frame)          : 0.482
Stream size                 : 5.62 GiB (81%)
Title                       : Глибинна зірка шість / DeepStar Six / Глубоководная звезда шесть (1988) 720p [CRiSC]
Writing library             : core 142 r2431+42 c69a006 tMod [[email protected]:2:0 X86_64]
Encoding settings           : cabac=1 / ref=11 / deblock=1:-3:-3 / analyse=0x3:0x133 / me=umh / subme=10 / psy=1 / fade_compensate=0.00 / psy_rd=1.00:0.00 / mixed_ref=1 / me_range=24 / chroma_me=1 / trellis=2 / 8x8dct=1 / cqm=0 / deadzone=21,11 / fast_pskip=1 / chroma_qp_offset=-2 / threads=12 / lookahead_threads=2 / sliced_threads=0 / nr=0 / decimate=1 / interlaced=0 / bluray_compat=0 / constrained_intra=0 / fgo=0 / bframes=9 / b_pyramid=2 / b_adapt=2 / b_bias=0 / direct=3 / weightb=1 / open_gop=0 / weightp=2 / keyint=250 / keyint_min=23 / scenecut=40 / intra_refresh=0 / rc_lookahead=60 / rc=crf / mbtree=0 / crf=16.5000 / qcomp=0.65 / qpmin=0:0:0 / qpmax=69:69:69 / qpstep=4 / vbv_maxrate=62500 / vbv_bufsize=78125 / crf_max=0.0 / nal_hrd=none / filler=0 / ip_ratio=1.30 / pb_ratio=1.20 / aq=4:0.70 / aq-sensitivity=10.00 / aq-factor=1.00:1.00:1.00 / aq2=0 / aq3=0
Language                    : English
Default                     : Yes
Forced                      : No
Matrix coefficients         : BT.709
Color range                 : Limited
DURATION                    : 01:39:33.801000000
NUMBER_OF_FRAMES            : 143228
NUMBER_OF_BYTES             : 6179123737
_STATISTICS_WRITING_APP     : mkvmerge v7.7.0 ('Six Voices') 64bit built on Feb 28 2015 23:39:33
_STATISTICS_WRITING_DATE_UT : 2015-03-16 10:35:29
_STATISTICS_TAGS            : BPS DURATION NUMBER_OF_FRAMES NUMBER_OF_BYTES

Audio #1
ID                          : 2
Format                      : AC-3
Format/Info                 : Audio Coding 3
Mode extension              : CM (complete main)
Format settings, Endianness : Big
Codec ID                    : A_AC3
Duration                    : 1h 39mn
Bit rate mode               : Constant
Bit rate                    : 192 Kbps
Channel(s)                  : 2 channels
Channel positions           : Front: L R
Sampling rate               : 48.0 KHz
Bit depth                   : 16 bits
Compression mode            : Lossy
Stream size                 : 137 MiB (2%)
Title                       : DVO [ICTV] 2.0 192 kbps [2015, Hurtom-omm]
Language                    : Ukrainian
Default                     : Yes
Forced                      : No

Audio #2
ID                          : 3
Format                      :
Format/Info                 : Digital Theater Systems
Mode                        : 16
Format settings, Endianness : Big
Codec ID                    : A_DTS
Duration                    : 1h 39mn
Bit rate mode               : Constant
Bit rate                    : 1 509 Kbps
Channel(s)                  : 2 channels
Channel positions           : Front: L R
Sampling rate               : 48.0 KHz
Bit depth                   : 16 bits
Compression mode            : Lossy
Stream size                 : 1.05 GiB (15%)
Title                       : Original 2.0 1509 kbps
Language                    : English
Default                     : No
Forced                      : No

Menu
00:00:00.000                : :00:00:00.000
00:04:00.573                : :00:04:00.573
00:08:13.326                : :00:08:13.326
00:11:06.289                : :00:11:06.289
00:12:52.562                : :00:12:52.562
00:17:23.750                : :00:17:23.750
00:18:34.946                : :00:18:34.946
00:21:23.699                : :00:21:23.699
00:25:57.430                : :00:25:57.430
00:30:24.239                : :00:30:24.239
00:32:36.621                : :00:32:36.621
00:39:25.612                : :00:39:25.612
00:48:35.996                : :00:48:35.996
00:53:02.637                : :00:53:02.637
01:00:07.061                : :01:00:07.061
01:04:02.838                : :01:04:02.838
01:10:59.337                : :01:10:59.337
01:16:50.314                : :01:16:50.314
01:19:21.213                : :01:19:21.213
01:21:31.761                : :01:21:31.761
01:22:19.225                : :01:22:19.225
01:26:12.667                : :01:26:12.667
01:30:29.631                : :01:30:29.631
01:36:16.686                : :01:36:16.686




Джерела та подяки: &
ріп відео, оригінальні звук та субтитри - CRiSC (HDbits), madoff (HDClub); українська доріжка - omm - зведення, slavik_v_z, РОМЕО, Sando7 - запис з ТБ; українізовані постери - Ermolenko, Zubr139 (всі - Гуртом).


ЗАЛИШАЙТЕСЬ ЯКОМОГА ДОВШЕ НА РОЗДАЧІ!

СКАЧАВ САМ - ДАЙ СКАЧАТИ ІНШИМ


Срібний реліз (на рейтинг впливає 50% завантаженого)
 Трекер:    Зареєстрований   

Завантажити / скачати фільм українською



відео для новачків



 Зареєстрований:   2015-03-16 14:08
 Розмір:   6.94 GB 
 Оцінка фільму:   3.6/10 (Голосів: 15)
   
Інші релізи
   Глибинна зірка шість / DeepStar Six (1988) Ukr/Eng omm  2 / 1   1.59 GB   2015-03-14 19:53 
Anonymous 







2015-03-16 14:22  
Українська доріжка не з HDClub'івського релізу, а з свіженького, більш якісного запису, зведеного п.omm.
Також,
omm написано:
ідентична озвучка колись була по Кіно

Siegfried 
Свій


З нами з: 01.11.11
Востаннє: 04.12.16
Повідомлень: 84

2015-03-19 14:09  
Фільм слабенький. Все досить нудно і мляво, створіння показано нечасто і непереконливо.
Є чимала схожість з "Leviathan" (1989).

Вердикт: 4/10 .

Ваш часовий пояс: GMT + 2 Години

Нова тема   Відповісти