Завантажити та скачати торренти українською


Хоббіт: Битва п'яти воїнств / The Hobbit: The Battle of the Five Armies (2014) 720p-mini

Нові коментарі

Нова тема   Відповісти
Автор Повідомлення
Drool 
VIP


З нами з: 17.04.10
Востаннє: 03.12.16
Повідомлень: 1262

2015-03-16 08:28  
Хоббіт: Битва п'яти воїнств / The Hobbit: The Battle of the Five Armies (2014) 720p-mini

Жанр: пригодницький, фентезі
Країна: США, Нова Зеландія



Кінокомпанія: New Line Cinema, Metro-Goldwyn-Mayer (MGM), WingNut Films
Режисер: Пітер Джексон
Актори: Мартін Фріман, Йєн МакКелен, Річард Армітаж, Джеймс Несбіт, Кен Стотт, Ґрегем МакТавіш, Орландо Блум, Люк Еванс, Бенедикт Камбербетч, Кейт Бланшет, Х'юґо Вівінґ, Крістофер Лі та інші

Сюжет:
Завершальна частина подорожі Більбо Беґінса та його друзів. Після того, як Більбо увійшов до лігва Смоґа та розгнівав його, дракон палає бажанням помститись. Але у кожного є слабке місце і Смоґ не виключення.
Чи зможуть Більбо і гноми повернути рідне містечко Еребор і скарби відібрані Смоґом? Якщо так, то чи зможуть вони їх утримати?


Тривалість: 02:24:28
Якість: 720p-mini
Відео:
кодек:
розмір кадру: 1280x534
бітрейт: 2603 кб/с

Аудіо:
мова: українська
переклад: професійний дубльований
кодек: 5.1
бітрейт: 448 кб/с

Джерело озвучення:


Субтитри:
мова: українська (форсовані, мова ельфів, орків)
тип: програмні (м'які)
формат: *.srt
MediaInfo
General
Unique ID : 210550691864058173554274092893393407090 (0x9E6696960F876B9D42FF12D4B4B44C72)
Complete name : /mnt/disk_e/Video/Films/The.Hobbit.The.Battle.of.the.Five.Armies.2014.Ukr.Dub..720p-mini.UAGet.mkv.mkv
Format : Matroska
Format version : Version 4 / Version 2
File size : 3.08 GiB
Duration : 2h 24mn
Overall bit rate : 3 052 Kbps
Movie name : Хоббіт: Битва п'яти воїнств / The Hobbit: The Battle of the Five Armies (2014) 720p-mini -=UAGet=-
Encoded date : UTC 2010-02-22 21:41:31
Writing application : mkvmerge v7.3.0 ('Nouages') 32bit built on Nov 1 2014 22:50:56
Writing library : libebml v1.3.0 + libmatroska v1.4.1
TITLE : Хоббіт: Битва п'яти воїнств (2014) 720p-mini -=UAGet=-
ARTIST : Мартін Фріман, Йєн МакКелен, Річард Армітаж, Джеймс Несбіт, Кен Стотт та ін.
DIRECTOR : Пітер Джексон
DATE_RELEASED : 2014
GENRE : пригодницький, фентезі
SYNOPSIS : Завершальна частина подорожі Більбо Беґінса та його друзів. Після того, як Більбо увійшов до лігва Смоґа та розгнівав його, дракон палає бажанням помститись. Але у кожного є слабке місце і Смоґ не виключення. / Чи зможуть Більбо і гноми повернути рідне містечко Еребор і скарби відібрані Смоґом? Якщо так, то чи зможуть вони їх утримати?
DURATION : 02:24:29.056000000
NUMBER_OF_FRAMES : 270908
NUMBER_OF_BYTES : 485467136
_STATISTICS_WRITING_APP : mkvmerge v7.3.0 ('Nouages') 32bit built on Nov 1 2014 22:50:56
_STATISTICS_WRITING_DATE_UTC : 2015-03-21 21:56:32
_STATISTICS_TAGS : BPS DURATION NUMBER_OF_FRAMES NUMBER_OF_BYTES

Video
ID : 1
Format : AVC
Format/Info : Advanced Video Codec
Format profile : [email protected]
Format settings, CABAC : Yes
Format settings, ReFrames : 11 frames
Codec ID : V_MPEG4/ISO/AVC
Duration : 2h 24mn
Bit rate : 2 603 Kbps
Width : 1 280 pixels
Height : 534 pixels
Display aspect ratio : 2.40:1
Frame rate mode : Constant
Frame rate : 23.976 fps
Color space : YUV
Chroma subsampling : 4:2:0
Bit depth : 8 bits
Scan type : Progressive
Bits/(Pixel*Frame) : 0.159
Stream size : 2.57 GiB (83%)
Title : Хоббіт: Битва п'яти воїнств / The Hobbit: The Battle of the Five Armies (2014) 720p-mini -=UAGet=-
Writing library : core 142 r2389 956c8d8
Encoding settings : cabac=1 / ref=12 / deblock=1:-3:-3 / analyse=0x3:0x133 / me=umh / subme=11 / psy=1 / psy_rd=1,10:0,15 / mixed_ref=1 / me_range=64 / chroma_me=1 / trellis=2 / 8x8dct=1 / cqm=0 / deadzone=21,11 / fast_pskip=0 / chroma_qp_offset=-3 / threads=6 / lookahead_threads=1 / sliced_threads=0 / nr=0 / decimate=1 / interlaced=0 / bluray_compat=0 / constrained_intra=0 / bframes=12 / b_pyramid=1 / b_adapt=2 / b_bias=0 / direct=3 / weightb=1 / open_gop=0 / weightp=2 / keyint=240 / keyint_min=24 / scenecut=40 / intra_refresh=0 / rc=2pass / mbtree=0 / bitrate=2603 / ratetol=1,0 / qcomp=1,00 / qpmin=0 / qpmax=69 / qpstep=4 / cplxblur=20,0 / qblur=0,5 / ip_ratio=1,40 / pb_ratio=1,30 / aq=2:0,60
Default : Yes
Forced : Yes
Color primaries : BT.709
Transfer characteristics : BT.709
Matrix coefficients : BT.709

Audio
ID : 2
Format : AC-3
Format/Info : Audio Coding 3
Mode extension : CM (complete main)
Format settings, Endianness : Big
Codec ID : A_AC3
Duration : 2h 24mn
Bit rate mode : Constant
Bit rate : 448 Kbps
Channel(s) : 6 channels
Channel positions : Front: L C R, Side: L R, LFE
Sampling rate : 48.0 KHz
Bit depth : 16 bits
Compression mode : Lossy
Stream size : 463 MiB (15%)
Title : Рідна мова (Dub 5.1 448kbps)
Language : Ukrainian
Default : Yes
Forced : Yes

Text
ID : 3
Format : UTF-8
Codec ID : S_TEXT/UTF8
Codec ID/Info : UTF-8 Plain Text
Title : Українська (форсовані, мова ельфів, орків)
Language : Ukrainian
Default : Yes
Forced : Yes
Скріншоти




Джерело:
Особиста оцінка: 9 - давно не бачив настільки якісне кіно


 Трекер:    Зареєстрований   

Завантажити / скачати фільм українською



відео для новачків



 Зареєстрований:   2015-03-22 00:13
 Розмір:   3.08 GB 
 Оцінка фільму:   9.6/10 (Голосів: 36)
   
Інші релізи
   Гоббіт: Битва п'яти воїнств / The Hobbit: The Battle of the Five Armies (2014) DVD9 + DVD5 / R5 Eng/Hin/Rus/Ukr Bochys  0 / 0   8.28 GB   2015-12-24 21:32 
   Хоббіт: Битва п'яти воїнств / The Hobbit: The Battle of the Five Armies [Extended Edition] (2014) AVC Ukr | Sub Ukr/Eng patriot2305  4 / 0   3.86 GB   2015-12-03 15:07 
   Хоббіт: Битва п'яти воїнств / Гобіт: Битва п'яти армій / The Hobbit: The Battle of the Five Armies (2014) Ukr/Eng | Sub Ukr/Eng omm  4 / 0   2.91 GB   2015-03-22 17:18 
   Хоббіт: Битва п'яти воїнств / The Hobbit: The Battle of the Five Armies (2014) Remux 1080p Ukr/Eng | Sub Eng 11FrYkT  0 / 0   28.92 GB   2015-03-22 10:07 
   Хоббіт: Битва п'яти воїнств / The Hobbit: The Battle of the Five Armies (2014) [2-Disc Special Edition] Blu-ray CEE Multi | Sub Multi smak2001  1 / 0   38.51 GB   2015-03-21 20:52 
   Хоббіт: Битва п'яти воїнств / The Hobbit: The Battle of the Five Armies (2014) 1080p Ukr/Eng | Sub Ukr/Eng 11FrYkT  0 / 0   14.46 GB   2015-03-21 20:12 
   Хоббіт: Битва п'яти воїнств / The Hobbit: The Battle of the Five Armies (2014) 720p Ukr/Eng | Sub Ukr/Eng 11FrYkT  5 / 0   7.85 GB   2015-03-21 20:07 
   Хоббіт: Битва п'яти воїнств / Гобіт: Битва п'яти армій / The Hobbit: The Battle of the Five Armies (2014) AVC Ukr/Eng | Sub Ukr/Eng Gelios  3 / 0   2.18 GB   2015-03-21 14:58 
   Хоббіт: Битва п'яти воїнств / The Hobbit: The Battle of the Five Armies (2014) 1080p 3D [Half SideBySide] Ukr/Eng | Sub Ukr/Eng GEORGKys  3 / 0   17.79 GB   2015-03-12 00:19 
bot 
робот


З нами з: 30.09.07
Востаннє: 26.05.05
Повідомлень: 15989

2015-03-16 08:28  
Тему перенесено з Фільми в HD до форуму Анонси релізів


Drool

boroznaya 
VIP


З нами з: 02.11.12
Востаннє: 04.12.16
Повідомлень: 1868

2015-03-16 11:42  
Це прекрасно! А коли буде ліцензія?
Drool 
VIP


З нами з: 17.04.10
Востаннє: 03.12.16
Повідомлень: 1262

2015-03-16 12:00  
boroznaya написано:
Це прекрасно! А коли буде ліцензія?

На "кінопоіску" пишуть, що ліцензія блюрей буде 17 квітня.

patriot2305 
Почесний гуртомівець


З нами з: 23.04.11
Востаннє: 04.12.16
Повідомлень: 4145

2015-03-16 12:03  
Drool написано:
На "кінопоіску" пишуть, що ліцензія блюрей буде 17 квітня.

Не знаю про що там каже кінопоіск, та я більш ніж впевнений, що як не цього то наступного тижня блюрик з нашою доріжкою вже буде...

boroznaya 
VIP


З нами з: 02.11.12
Востаннє: 04.12.16
Повідомлень: 1868

2015-03-16 12:03  
Спасибі, адже ці фільми для мене одні з найкраших, тому запитую! Звук також буде 5.1Ch, як і в попередніх?
Drool 
VIP


З нами з: 17.04.10
Востаннє: 03.12.16
Повідомлень: 1262

2015-03-16 20:37  
boroznaya написано:
Звук також буде 5.1Ch, як і в попередніх?

Який буде на блюрі чи DVD - такий і в релізах.

bot 
робот


З нами з: 30.09.07
Востаннє: 26.05.05
Повідомлень: 15989

2015-03-17 08:02  
Тему перенесено з Анонси релізів до форуму Фільми в HD


Drool

N.W.A 
VIP


З нами з: 22.11.13
Востаннє: 05.12.16
Повідомлень: 270

2015-03-17 17:28  
Чомусь у мене не відтворюються українські субтитри!
Пробував MPC та VLC.
Можливо хтось знає причину?

Drool 
VIP


З нами з: 17.04.10
Востаннє: 03.12.16
Повідомлень: 1262

2015-03-17 23:55  
N.W.A написано:
Чомусь у мене не відтворюються українські субтитри!
Так, здається, на блюремуксі українські форсовані саби PGS пусті Sad (1) Доведеться шукати окремо форсовані. Прикручу, як вийде ліцензійний звук.

Додано через 2 години 38 хвилин 36 секунд:

Знайшов, окремим файлов поки що можна скачати тут.

Drool 
VIP


З нами з: 17.04.10
Востаннє: 03.12.16
Повідомлень: 1262

2015-03-22 00:20  
Форсовані саби в контейнері, доріжка замінена на ліцензійну!
ingwar 
Модератор літератури


З нами з: 08.03.08
Востаннє: 02.12.16
Повідомлень: 1200

2015-03-22 10:06  
Цитата:
Завершальна частина подорожі Більбо Беґінса та його друзів.

Скажіть будь-ласка, які були попередні частини?

Drool 
VIP


З нами з: 17.04.10
Востаннє: 03.12.16
Повідомлень: 1262

2015-03-22 12:56  
ingwar написано:
Скажіть будь-ласка, які були попередні частини?

Хоббіт: Неочікувана подорож
Хоббіт: Пустка Смоґа

Angel*Of*DeatH 
Новенький


З нами з: 24.11.11
Востаннє: 04.12.16
Повідомлень: 20

2015-12-10 22:23  
от і все ...
Єдина надія, що далі візьмуться за "Сильмариліон"

Ваш часовий пояс: GMT + 2 Години

Нова тема   Відповісти