Завантажити та скачати торренти українською


З Африки / Out of Africa (1985) Ukr/Eng | Sub Eng

Нові коментарі

Нова тема   Відповісти
Автор Повідомлення
Anonymous 







2015-03-14 02:39  
З Африки / Out of Africa (1985) Ukr/Eng | Sub Eng



Український постер



Жанр: драма, мелодрама, біографічний
Країна: США

7 Оскарів, 3 Золотих глобуса та 3 премії Британської кіноакадемії

Кінокомпанія: Mirage Enterprises, Universal Pictures
Режисер: Сідні Поллак / Sydney Pollack
Актори: Меріл Стріп / Meryl Streep, Роберт Редфорд / Robert Redford, Клаус Марія Брандауер, Майкл Кичен, Малік Боуенс, Джозеф Тіака, Стівен Кинянджуї, Майкл Гоф, Сюзана Хемілтон, Рейчел Кемпсон та інші

Сюжет:
Початок XX століття. Карен Бліксен вирушає в подорож до Кенії, де її чоловік-підприємець вирощує каву. Тут, в самому серці Африки, Карен долею судитилося зустріти своє справжнє і єдине кохання...

Усі нагороди та номінації


Оскар, 1986 рік
Переможець (7):

Кращий фільм
Кращий режисер (Сідні Поллак)
Кращий адаптований сценарій
Краща робота оператора
Кращі декорації
Кращий звук
Кращий оригінальний саундтрек


Номінації (4):
Краща жіноча роль (Меріл Стріп)
Краща чоловіча роль другого плану (Клаус Марія Брандауер)
Кращі костюми
Кращий монтаж



Золотий глобус, 1986 рік
Переможець (3):
Кращий фільм (драма)
Краща чоловіча роль другого плану (Клаус Марія Брандауер)
Кращий саундтрек


Номінації (3):
Краща жіноча роль (драма) (Меріл Стріп)
Кращий режисер (Сідні Поллак)
Кращий сценарій


З Африки / Out of Africa (1985) Ukr/Eng | Sub Eng
Британська академія кіно та телевізійного мистецтва, 1987 рік
Переможець (3):
Кращий адаптований сценарій
Краща робота оператора
Кращий звук


Номінації (4):
Краща жіноча роль (Меріл Стріп)
Краща чоловіча роль другого плану (Клаус Марія Брандауер)
Кращі костюми
Кращий саундтрек



Сезар, 1987 рік
Номінації (1):
Кращий іншомовний фільм

Також, фільм отримав два приза «Давид» Донателло» в Італіі — за найкращий іноземний фільм та найкращій іноземній актрисі (Меріл Стріп), «Срібну стрічку» в Італії найкращому іноземному режисеру та премію імені Жозефа Плато в Бельгії за музику.


Рейтинг MPAA: PG - рекомендується присутність батьків
Вікова категорія: 12+

Тривалість: 02:40:55
Якість:
Відео:
кодек: build 64
розмір кадру: 704x384
бітрейт: 1810 кбіт/с

Аудіо # 1:
мова: українська
переклад: двоголосий закадровий
ролі озвучили: Юрій Гребельник, Катерина Коновалова або Ірина Ткаленко
кодек: 5.1
бітрейт: 384 кбіт/с

Аудіо # 2:
мова: англійська
переклад: оригінал
кодек: 5.1
бітрейт: 384 кбіт/с

Субтитри:
мова: англійська (завантажити)
тип: програмні (м'які)
формат: *.srt
MediaInfo
Код:
General
Complete name               : Out of Africa (1985) [Ukr,Eng] [Hurtom & HQClub].avi
Format                      : AVI
Format/Info                 : Audio Video Interleave
Format profile              : OpenDML
File size                   : 2.91 GiB
Duration                    : 2h 40mn
Overall bit rate            : 2 585 Kbps
Movie name                  : З Африки / Out of Africa (1985)
Director                    : igor911 & sociolog_melvas
Genre                       : Drama/Romance
Writing application         : VirtualDubModRus 1.5.10.2 (build 2540/release)
Copyright                   : Hurtom & HQClub
Comment                     : 14.03.2015

Video
ID                          : 0
Format                      : MPEG-4 Visual
Format profile              : Advanced [email protected]
Format settings, BVOP       : 1
Format settings, QPel       : No
Format settings, GMC        : No warppoints
Format settings, Matrix     : Custom
Codec ID                    :
Codec ID/Hint               :
Duration                    : 2h 40mn
Bit rate                    : 1 802 Kbps
Width                       : 704 pixels
Height                      : 384 pixels
Display aspect ratio        : 1.85:1
Frame rate                  : 23.976 fps
Color space                 : YUV
Chroma subsampling          : 4:2:0
Bit depth                   : 8 bits
Scan type                   : Progressive
Compression mode            : Lossy
Bits/(Pixel*Frame)          : 0.278
Stream size                 : 2.03 GiB (70%)
Writing library             : 64

Audio #1
ID                          : 1
Format                      : AC-3
Format/Info                 : Audio Coding 3
Mode extension              : CM (complete main)
Format settings, Endianness : Big
Codec ID                    : 2000
Duration                    : 2h 40mn
Bit rate mode               : Constant
Bit rate                    : 384 Kbps
Channel(s)                  : 6 channels
Channel positions           : Front: L C R, Side: L R, LFE
Sampling rate               : 48.0 KHz
Bit depth                   : 16 bits
Compression mode            : Lossy
Stream size                 : 442 MiB (15%)
Alignment                   : Split accross interleaves
Interleave, duration        : 42 ms (1.00 video frame)
Interleave, preload duratio : 500 ms

Audio #2
ID                          : 2
Format                      : AC-3
Format/Info                 : Audio Coding 3
Mode extension              : CM (complete main)
Format settings, Endianness : Big
Codec ID                    : 2000
Duration                    : 2h 40mn
Bit rate mode               : Constant
Bit rate                    : 384 Kbps
Channel(s)                  : 6 channels
Channel positions           : Front: L C R, Side: L R, LFE
Sampling rate               : 48.0 KHz
Bit depth                   : 16 bits
Compression mode            : Lossy
Stream size                 : 442 MiB (15%)
Alignment                   : Split accross interleaves
Interleave, duration        : 42 ms (1.00 video frame)
Interleave, preload duratio : 500 ms




Джерела та подяки: &
ріп відео, оригінальні звук та субтитри - sociolog_melvas (HQClub); українська доріжка - Romario_O - запис з ТБ та зведення, igor911 - синхронізація під ; українізований постер - BigMak; фільмографії акторів та інформація про озвучення - Віктор (всі - Гуртом).

Особиста оцінка: 8 - мені сподобалося


ЗАЛИШАЙТЕСЬ ЯКОМОГА ДОВШЕ НА РОЗДАЧІ!

СКАЧАВ САМ - ДАЙ СКАЧАТИ ІНШИМ


Срібний реліз (на рейтинг впливає 50% завантаженого)
 Трекер:    Зареєстрований   

Завантажити / скачати фільм українською



відео для новачків



 Зареєстрований:   2015-03-14 02:39
 Розмір:   2.91 GB 
 Оцінка фільму:   6.1/10 (Голосів: 25)
   
Інші релізи
   З Африки / Out of Africa (1985) 720p Ukr/Eng | Sub Eng igor911  1 / 0   8.36 GB   2015-03-14 00:50 
Maters 
VIP


З нами з: 27.03.12
Востаннє: 07.12.16
Повідомлень: 1162

2015-11-21 13:36  
Хороший фільм. Не знаю, що мені сподобалось більше:, чарівна природа Африки з її жителями, стійкість терплячість та непохитність головної героїні, чи сам спосіб їхнього життя, коли вечори проходять за келихом вина і цікавою історією біля вогню)
Фільм доволі простий і водночас дуже справжній, без фальшу - історія, в якій дуже класно показано те, наскільки життя може покрутити тобою. Не шкодую, що витратив 3 години на перегляд 8/10. Дякую!

Ваш часовий пояс: GMT + 2 Години

Нова тема   Відповісти