Завантажити та скачати торренти українською


Закони привабливості / Laws of Attraction (2004) 720p 2xUkr/Eng | Sub Eng

Нові коментарі

Нова тема   Відповісти
Автор Повідомлення
Anonymous 







2015-03-13 19:23  
Закони привабливості / Laws of Attraction (2004) 720p 2xUkr/Eng | Sub Eng



Українізований постер



Жанр: мелодрама, комедія
Країна: Ірландія, Велика Британія, Німеччина



Кінокомпанія: Deep River Productions, Irish DreamTime, Initial Entertainment Group (IEG), Fern Valley Limited, Intermedia Productions, MHF Zweite Academy Film, Mobius Pictures, Stratus Film Co.
Режисер: Пітер Ховітт / Peter Howitt
Актори: Пірс Броснан / Pierce Brosnan, Джуліан Мур / Julianne Moore, Майкл Шин / Michael Sheen, Паркер Позі / Parker Posey, Френсіс Фішер / Frances Fisher, Нора Данн / Nora Dunn, Хезер Енн Нюрнберг / Heather Ann Nurnberg та інші

Сюжет:
Два успішних адвокати знайомляться у залі суду, захищаючи протилежні сторони на шлюборозлучному процесі. Колишнє подружжя, клієнти Деніела та Одрі, претендують на замок, що знаходиться в Ірландії. Адвокати їдуть туди, щоб на місці розібратися у ситуації. Але під похмурим ірландським небом, серед пагорбів і полів, два супротивники відчувають легкий потяг один до одного, але категорично не бажають визнати це почуття, потрапляють на національне ірландське свято, і після ночі бурхливих веселощів Деніел та Одрі прокидаються чоловіком і дружиною...


Рейтинг MPAA: PG-13 - дітям до 13 років перегляд не бажаний
Вікова категорія: 12+

Тривалість: 01:30:02
Якість: 720p
Відео:
кодек:
розмір кадру: 1280 x 548
бітрейт: 4253 кбіт/с [crf=17.2]

Аудіо # 1:
мова: українська
переклад: двоголосий закадровий
ролі озвучили: Михайло Жонін та Лідія Муращенко
кодек: 2.0
бітрейт: 192 кбіт/с

Аудіо # 2: Lipton DVD Collection
мова: українська
переклад: багатоголосий закадровий
ролі озвучили: Михайло Тишин, Тетяна Антонова? ще один жіночий і один чоловічий голоси
кодек: 5.1
бітрейт: 384 кбіт/с

Аудіо # 3:
мова: англійська
переклад: оригінал
кодек: 5.1
бітрейт: 448 кбіт/с

Субтитри:
мова: англійська
тип: програмні (м'які)
формат: *.srt

Збережено оригінальні розділи
MediaInfo
Код:
General
Unique ID                   : 230185018526854896946090259528873427404 (0xAD2C05A155A5DB90BBAF8DEA39A041CC)
Complete name               : Laws of Attraction (2004) [2xUkr,Eng sub.Eng] 720p [Hurtom & HDClub].mkv
Format                      : Matroska
Format version              : Version 4 / Version 2
File size                   : 3.39 GiB
Duration                    : 1h 30mn
Overall bit rate            : 5 384 Kbps
Movie name                  : Закони привабливості / Laws of Attraction (2004) [2xUkr,Eng sub.Eng] 720p [Hurtom & HDClub]
Encoded date                : UTC 2015-03-13 17:10:08
Writing application         : mkvmerge v7.7.0 ('Six Voices') 64bit built on Feb 28 2015 23:39:33
Writing library             : libebml v1.3.1 + libmatroska v1.4.2
Attachements                : cover.jpg
DURATION                    : 01:30:01.600000000
NUMBER_OF_FRAMES            : 168800
NUMBER_OF_BYTES             : 129638400
_STATISTICS_WRITING_APP     : mkvmerge v7.7.0 ('Six Voices') 64bit built on Feb 28 2015 23:39:33
_STATISTICS_WRITING_DATE_UT : 2015-03-13 17:10:08
_STATISTICS_TAGS            : BPS DURATION NUMBER_OF_FRAMES NUMBER_OF_BYTES

Video
ID                          : 1
Format                      : AVC
Format/Info                 : Advanced Video Codec
Format profile              : [email protected]
Format settings, CABAC      : Yes
Format settings, ReFrames   : 11 frames
Codec ID                    : V_MPEG4/ISO/AVC
Duration                    : 1h 30mn
Bit rate                    : 4 253 Kbps
Width                       : 1 280 pixels
Height                      : 548 pixels
Display aspect ratio        : 2.35:1
Frame rate mode             : Constant
Frame rate                  : 23.976 fps
Color space                 : YUV
Chroma subsampling          : 4:2:0
Bit depth                   : 8 bits
Scan type                   : Progressive
Bits/(Pixel*Frame)          : 0.253
Stream size                 : 2.67 GiB (79%)
Title                       : Закони привабливості / Laws of Attraction / Законы привлекательности (2004) 720p [HDClub-SbR]
Writing library             : core 144 r2525kMod 40bb568
Encoding settings           : cabac=1 / ref=11 / deblock=1:-3:-3 / analyse=0x3:0x133 / me=esa / subme=10 / psy=1 / fade_compensate=0.00 / psy_rd=1.00:0.05 / mixed_ref=1 / me_range=24 / chroma_me=1 / trellis=2 / 8x8dct=1 / cqm=0 / deadzone=21,11 / fast_pskip=0 / chroma_qp_offset=-3 / threads=6 / lookahead_threads=1 / sliced_threads=0 / nr=0 / decimate=1 / interlaced=0 / bluray_compat=0 / constrained_intra=0 / fgo=0 / bframes=12 / b_pyramid=2 / b_adapt=2 / b_bias=0 / direct=3 / weightb=1 / open_gop=0 / weightp=2 / keyint=250 / keyint_min=23 / scenecut=40 / intra_refresh=0 / rc_lookahead=60 / rc=crf / mbtree=0 / crf=17.2000 / qcomp=0.70 / qpmin=0 / qpmax=69 / qpstep=4 / vbv_maxrate=62500 / vbv_bufsize=78125 / crf_max=0.0 / nal_hrd=none / filler=0 / ip_ratio=1.40 / pb_ratio=1.30 / aq=1:0.65
Language                    : English
Default                     : Yes
Forced                      : No
Color primaries             : BT.709
Transfer characteristics    : BT.709
Matrix coefficients         : BT.709
Color range                 : Limited
DURATION                    : 01:30:01.563000000
NUMBER_OF_FRAMES            : 129508
NUMBER_OF_BYTES             : 2942277308
_STATISTICS_WRITING_APP     : mkvmerge v7.7.0 ('Six Voices') 64bit built on Feb 28 2015 23:39:33
_STATISTICS_WRITING_DATE_UT : 2015-03-13 17:10:08
_STATISTICS_TAGS            : BPS DURATION NUMBER_OF_FRAMES NUMBER_OF_BYTES

Audio #1
ID                          : 2
Format                      : AC-3
Format/Info                 : Audio Coding 3
Mode extension              : CM (complete main)
Format settings, Endianness : Big
Codec ID                    : A_AC3
Duration                    : 1h 30mn
Bit rate mode               : Constant
Bit rate                    : 192 Kbps
Channel(s)                  : 2 channels
Channel positions           : Front: L R
Sampling rate               : 48.0 KHz
Bit depth                   : 16 bits
Compression mode            : Lossy
Stream size                 : 124 MiB (4%)
Title                       : DVO [Novyj] 2.0 192 kbps [2015, Hurtom-patriot2305,slavik_v_z]
Language                    : Ukrainian
Default                     : Yes
Forced                      : No

Audio #2
ID                          : 3
Format                      : AC-3
Format/Info                 : Audio Coding 3
Mode extension              : CM (complete main)
Format settings, Endianness : Big
Codec ID                    : A_AC3
Duration                    : 1h 30mn
Bit rate mode               : Constant
Bit rate                    : 384 Kbps
Channel(s)                  : 6 channels
Channel positions           : Front: L C R, Side: L R, LFE
Sampling rate               : 48.0 KHz
Bit depth                   : 16 bits
Compression mode            : Lossy
Stream size                 : 247 MiB (7%)
Title                       : MVO [Lipton DVD Collection] 5.1 384 kbps [HDClub-RekoJ]
Language                    : Ukrainian
Default                     : No
Forced                      : No

Audio #3
ID                          : 4
Format                      : AC-3
Format/Info                 : Audio Coding 3
Mode extension              : CM (complete main)
Format settings, Endianness : Big
Codec ID                    : A_AC3
Duration                    : 1h 30mn
Bit rate mode               : Constant
Bit rate                    : 448 Kbps
Channel(s)                  : 6 channels
Channel positions           : Front: L C R, Side: L R, LFE
Sampling rate               : 48.0 KHz
Bit depth                   : 16 bits
Compression mode            : Lossy
Stream size                 : 289 MiB (8%)
Title                       : Original 5.1 448 kbps
Language                    : English
Default                     : No
Forced                      : No

Text
ID                          : 5
Format                      : UTF-8
Codec ID                    : S_TEXT/UTF8
Codec ID/Info               : UTF-8 Plain Text
Title                       : R1
Language                    : English
Default                     : No
Forced                      : No

Menu
00:00:00.000                : en:Начало
00:05:17.250                : en:Новый адвокат
00:10:37.103                : en:"Я согласна"
00:14:25.798                : en:Семинар
00:19:38.110                : en:Обед экспромтом
00:25:18.484                : en:Дело закрыто
00:31:11.002                : en:Шанс встретиться с Сериной
00:36:54.145                : en:Преждевременное торжество
00:40:29.360                : en:Делёж имущества
00:45:48.245                : en:Путешествие в Замок Рока
00:52:38.756                : en:Опрос персонала
00:58:37.114                : en:Выпили и поженились
01:02:51.601                : en:Законный брак
01:06:42.065                : en:Назад к работе
01:15:09.739                : en:Примерение
01:21:03.659                : en:Второй шанс
01:25:32.160                : en:Конец




Джерела та подяки: &
відео, оригінальні звук та субтитри - SbR, delia, RekoJ (HDClub); українська доріжка (Новий канал) - patriot2305 -зведення, slavik_v_z - запис з ТБ; українізований постер - maksym1990; фільмографії акторів та інформація про озвучення - Віктор (всі - Гуртом).


ЗАЛИШАЙТЕСЬ ЯКОМОГА ДОВШЕ НА РОЗДАЧІ!

СКАЧАВ САМ - ДАЙ СКАЧАТИ ІНШИМ


Срібний реліз (на рейтинг впливає 50% завантаженого)
 Трекер:    Зареєстрований   

Завантажити / скачати фільм українською



відео для новачків



 Зареєстрований:   2015-03-13 19:23
 Розмір:   3.39 GB 
 Оцінка фільму:   2.8/10 (Голосів: 13)
   
Ваш часовий пояс: GMT + 2 Години

Нова тема   Відповісти