Завантажити та скачати торренти українською


Нокдаун / Cinderella Man (2005) 720p Ukr/Eng | Sub Eng

Нові коментарі

Нова тема   Відповісти
Автор Повідомлення
Anonymous 







2015-03-12 18:49  
Нокдаун / Cinderella Man (2005) 720p Ukr/Eng | Sub Eng



Альтернативний український постер


Жанр: драма, біографічний, спорт
Країна: США



Кінокомпанія: Universal Pictures, Miramax Films, Imagine Entertainment
Режисер: Рон Ховард / Ron Howard
Актори: Рассел Кроу / Russell Crowe, Рене Зеллвеґер (Renée Zellweger), Коннор Прайс / Connor Price, Нік Сміт / Nick Smith, Метью Дж. Тейлор / Matthew G. Taylor, Пол Джаматті / Paul Giamatti

Сюжет:
Зазнавши декілька поразок підряд, боксер-важковаговик Джим Бреддок змушений кинути спорт. За часів Великої депресії Бреддок береться за будь-яку роботу, щоб прогодувати свою дружину Мей та дітей. При цьому він все ще сподівається повернутися на ринг. І одного разу йому випадає такий шанс. В останню хвилину він заміняє іншого боксера і виходить на поєдинок з претендентом на титул чемпіона світу.

На диво всім, Бреддок перемагає вже в третьому раунді. Незважаючи на те, що він важить менше своїх суперників і до того ж страждає від численних травм, Джим продовжує битися і вигравати. Апофеозом же його спортивної кар'єри стає поєдинок з чемпіоном світу Максом Баєром, що убив на ринзі двох людей...


Нагороди та номінації


Оскар, 2006 рік
Номінації (3):
Краща чоловіча роль другого плану (Пол Джаматті)
Кращий монтаж
Кращий грим



Золотий глобус, 2006 рік
Номінації (2):
Краща чоловіча роль (драма) (Рассел Кроу)
Краща чоловіча роль другого плану (Пол Джаматті)


Нокдаун / Cinderella Man (2005) 720p Ukr/Eng | Sub Eng
Британська академія кіно та телевізійного мистецтва, 2006 рік
Номінації (1):
Кращий оригінальний сценарій

Нокдаун / Cinderella Man (2005) 720p Ukr/Eng | Sub Eng
Премія Гільдії акторів, 2006 рік
Переможець (1):
Краща чоловіча роль другого плану (Пол Джаматті)


Номінації (1):
Краща чоловіча роль (Рассел Кроу)


рейтинг MPAA: PG-13 - дітям до 13 років перегляд не бажаний
Вікова категорія: 12+

Тривалість: 02:24:21
Якість: 720p (з японського блу-рея)
Відео:
кодек:
розмір кадру: 1280x544
бітрейт: 5558 кбіт/с [crf=16]

Аудіо # 1: Так Треба Продакшн на замовлення
мова: українська
переклад: багатоголосий закадровий
ролі озвучили: Юрій Ребрик (Рассел Кроу / Джим Бреддок), Олег Стальчук, Володимир Терещук і один жіночий голос
кодек: 5.1
бітрейт: 640 кб/с

Аудіо # 2:
мова: англійська
переклад: оригінал
кодек: 5.1
бітрейт: 1509 кбіт/с

Субтитри:
мова: англійська (повні)
тип: програмні (м'які)
формат: *.srt

Збережено оригінальні розділи, як на Blu-ray.
MediaInfo та
Код:
General
Unique ID                   : 251848940942148757551943219330794121566 (0xBD7857787D3DE66C9EE18B36409FE95E)
Complete name               : Cinderella Man (2005) [Ukr,Eng sub.Eng] 720p [Hurtom & HDClub].mkv
Format                      : Matroska
Format version              : Version 4 / Version 2
File size                   : 7.77 GiB
Duration                    : 2h 24mn
Overall bit rate            : 7 710 Kbps
Movie name                  : Нокдаун / Cinderella Man (2005) [Ukr,Eng sub.Eng] 720p [Hurtom & HDClub]
Encoded date                : UTC 2015-03-12 16:04:25
Writing application         : mkvmerge v7.7.0 ('Six Voices') 64bit built on Feb 28 2015 23:39:33
Writing library             : libebml v1.3.1 + libmatroska v1.4.2
Attachements                : xlog.txt / cover.jpg
DURATION                    : 02:13:45.518000000
NUMBER_OF_FRAMES            : 1573
NUMBER_OF_BYTES             : 60582
_STATISTICS_WRITING_APP     : mkvmerge v7.7.0 ('Six Voices') 64bit built on Feb 28 2015 23:39:33
_STATISTICS_WRITING_DATE_UT : 2015-03-12 16:04:25
_STATISTICS_TAGS            : BPS DURATION NUMBER_OF_FRAMES NUMBER_OF_BYTES

Video
ID                          : 1
Format                      : AVC
Format/Info                 : Advanced Video Codec
Format profile              : [email protected]
Format settings, CABAC      : Yes
Format settings, ReFrames   : 12 frames
Codec ID                    : V_MPEG4/ISO/AVC
Duration                    : 2h 24mn
Bit rate                    : 5 407 Kbps
Width                       : 1 280 pixels
Height                      : 544 pixels
Display aspect ratio        : 2.35:1
Frame rate mode             : Constant
Frame rate                  : 23.976 fps
Color space                 : YUV
Chroma subsampling          : 4:2:0
Bit depth                   : 8 bits
Scan type                   : Progressive
Bits/(Pixel*Frame)          : 0.324
Stream size                 : 5.45 GiB (70%)
Title                       : Нокдаун / Cinderella Man (2005) 720p [HDClub-SbR]
Writing library             : core 144 r2525kMod 40bb568
Encoding settings           : cabac=1 / ref=12 / deblock=1:-2:-2 / analyse=0x3:0x133 / me=umh / subme=11 / psy=1 / fade_compensate=0.00 / psy_rd=1.00:0.00 / mixed_ref=1 / me_range=32 / chroma_me=1 / trellis=2 / 8x8dct=1 / cqm=0 / deadzone=21,11 / fast_pskip=1 / chroma_qp_offset=-2 / threads=12 / lookahead_threads=3 / sliced_threads=0 / nr=0 / decimate=1 / interlaced=0 / bluray_compat=0 / constrained_intra=0 / fgo=0 / bframes=10 / b_pyramid=2 / b_adapt=2 / b_bias=0 / direct=1 / weightb=1 / open_gop=0 / weightp=2 / keyint=250 / keyint_min=23 / scenecut=40 / intra_refresh=0 / rc_lookahead=60 / rc=crf / mbtree=0 / crf=16.0000 / qcomp=0.70 / qpmin=0 / qpmax=69 / qpstep=4 / vbv_maxrate=62500 / vbv_bufsize=78125 / crf_max=0.0 / nal_hrd=none / filler=0 / ip_ratio=1.40 / pb_ratio=1.30 / aq=1:0.80
Language                    : English
Default                     : Yes
Forced                      : No
Color primaries             : BT.709
Transfer characteristics    : BT.709
Matrix coefficients         : BT.709
Color range                 : Limited

Audio #1
ID                          : 2
Format                      : AC-3
Format/Info                 : Audio Coding 3
Mode extension              : CM (complete main)
Format settings, Endianness : Big
Codec ID                    : A_AC3
Duration                    : 2h 24mn
Bit rate mode               : Constant
Bit rate                    : 640 Kbps
Channel(s)                  : 6 channels
Channel positions           : Front: L C R, Side: L R, LFE
Sampling rate               : 48.0 KHz
Bit depth                   : 16 bits
Compression mode            : Lossy
Stream size                 : 661 MiB (8%)
Title                       : MVO [TakTrebaProduction-ICTV] 5.1 640 Kbps [HDClub-serin]
Language                    : Ukrainian
Default                     : Yes
Forced                      : No

Audio #2
ID                          : 3
Format                      :
Format/Info                 : Digital Theater Systems
Mode                        : 16
Format settings, Endianness : Big
Codec ID                    : A_DTS
Duration                    : 2h 24mn
Bit rate mode               : Constant
Bit rate                    : 1 509 Kbps
Channel(s)                  : 6 channels
Channel positions           : Front: L C R, Side: L R, LFE
Sampling rate               : 48.0 KHz
Bit depth                   : 16 bits
Compression mode            : Lossy
Stream size                 : 1.52 GiB (20%)
Title                       : Original 5.1 1509 kbps
Language                    : English
Default                     : No
Forced                      : No

Text
ID                          : 4
Format                      : UTF-8
Codec ID                    : S_TEXT/UTF8
Codec ID/Info               : UTF-8 Plain Text
Language                    : English
Default                     : No
Forced                      : No

Menu
00:00:00.000                : en:The Next Champ
00:08:00.021                : en:Past Due
00:16:23.023                : en:Washed-Up
00:23:22.818                : en:Decommisioned
00:28:37.382                : en:Cut Off
00:38:53.039                : en:Emergency Relief
00:44:00.179                : en:One Last Chance
00:49:00.854                : en:Going in Hungry
00:58:43.686                : en:Sizing Up the Champ
01:02:53.186                : en:Back to Even
01:10:40.694                : en:Getting Serious
01:14:48.275                : en:Don't Back Down
01:22:51.299                : en:Count Your Blessings
01:28:17.000                : en:Know What You're Fighting For
01:36:17.938                : en:Giving Hope
01:40:44.163                : en:Find a Way Out
01:44:23.799                : en:Tremendous Underdog
01:54:34.742                : en:The Main Event
02:04:41.807                : en:Championship Round
02:17:43.380                : en:End Credits


Код:
raw [info]: 1280x544p 1:1 @ 24000/1001 fps (cfr)
[info]: using SAR=1/1
[info]: using cpu capabilities: MMX2 SSE2Fast SSSE3 SSE4.2 AVX
[info]: profile High, level 4.1
[info]: frame I:1521  Avg QP:12.79  size: 86201
[info]: frame P:46968 Avg QP:14.28  size: 48404
[info]: frame B:159175 Avg QP:16.32  size: 22698
[info]: consecutive B-frames:  3.1%  4.0%  6.2% 24.2% 10.4% 38.8%  2.6%  6.5%  0.8%  2.0%  1.3%
[info]: mb I  I16..4:  3.5% 88.0%  8.4%
[info]: mb P  I16..4:  0.5% 30.0%  1.2%  P16..4: 19.1% 28.8% 13.9%  1.8%  0.1%    skip: 4.6%
[info]: mb B  I16..4:  0.1%  4.4%  0.1%  B16..8: 33.8% 29.5%  7.4%  direct: 8.2%  skip:16.4%  L0:47.9% L1:40.1% BI:12.0%
[info]: 8x8 transform intra:94.9% inter:57.4%
[info]: coded y,uvDC,uvAC intra: 96.8% 93.9% 85.4% inter: 46.9% 32.3% 11.3%
[info]: i16 v,h,dc,p: 34% 11%  8% 47%
[info]: i8 v,h,dc,ddl,ddr,vr,hd,vl,hu:  8%  8% 10% 10% 13% 12% 13% 12% 15%
[info]: i4 v,h,dc,ddl,ddr,vr,hd,vl,hu:  8%  7%  7%  9% 16% 14% 15% 11% 13%
[info]: i8c dc,h,v,p: 57% 15% 12% 16%
[info]: Weighted P-Frames: Y:5.0% UV:3.4%
[info]: ref P L0: 39.9%  6.1% 17.9%  8.9%  6.8%  5.3%  4.3%  2.7%  2.3%  2.1%  1.8%  1.7%  0.2%  0.0%
[info]: ref B L0: 60.2% 14.1%  8.4%  4.7%  3.6%  2.8%  2.4%  1.5%  1.3%  0.8%  0.3%
[info]: ref B L1: 89.6% 10.4%
[info]: kb/s:5558.07

encoded 207664 frames, 6.65 fps, 5558.07 kb/s, duration 8:40:26.02





Джерела та подяки: &
ріп відео, оригінальні звук та субтитри - Skazhutin (aka SbR) (HDClub); українська доріжка - serin (HDClub); українізований постер - bogdan8249; фільмографії акторів та інформація про озвучення - Віктор (всі - Гуртом).

Особиста оцінка: 8 - мені сподобалося

ЗАЛИШАЙТЕСЬ ЯКОМОГА ДОВШЕ НА РОЗДАЧІ!

СКАЧАВ САМ - ДАЙ СКАЧАТИ ІНШИМ


 Трекер:    Зареєстрований   

Завантажити / скачати фільм українською



відео для новачків



 Зареєстрований:   2015-03-12 18:49
 Розмір:   7.77 GB 
 Оцінка фільму:   3.6/10 (Голосів: 14)
   
Інші релізи
   Нокдаун / Cinderella Man (2005) AVC Ukr/Eng | Sub Eng igor911  2 / 0   3.42 GB   2014-05-13 20:05 
   Нокдаун / Cinderella Man (2005) 1080p Ukr/Eng | Sub Eng igor911  5 / 0   10.08 GB   2013-06-24 19:00 
   Нокдаун / Cinderella Man (2005) Ukr/Eng | Sub Eng bogdan8249  11 / 0   2.91 GB   2009-09-09 22:33 
MutuLI 
Відео Гуртом - фільмокрай
Відео Гуртом - фільмокрай


З нами з: 08.03.09
Востаннє: 10.12.16
Повідомлень: 1252

2015-03-12 21:04  
класний фільм
peacemakerua 
Новенький


З нами з: 24.03.13
Востаннє: 10.12.16
Повідомлень: 4

2015-03-13 22:30  
улюблений)
малюк94 
VIP


З нами з: 03.03.10
Востаннє: 04.12.16
Повідомлень: 410

2016-02-06 01:38  
станьте на роздачу хтось...
Ваш часовий пояс: GMT + 2 Години

Нова тема   Відповісти