Завантажити та скачати торренти українською


Вихід: Боги та царі / Exodus: Gods and Kings (2014) 720p-mini

Нові коментарі

Нова тема   Відповісти
Автор Повідомлення
Drool 
VIP


З нами з: 17.04.10
Востаннє: 05.12.16
Повідомлень: 1262

2015-03-12 00:14  
Вихід: Боги та царі / Exodus: Gods and Kings (2014) 720p-mini

Жанр: екшн, пригодницький, драма
Країна: Велика Британія, США, Іспанія



Кінокомпанія: Chernin Entertainment, Scott Free Productions, Babieka, 20th Century Fox; мейджор – Twentieth Century Fox Film Corporation
Режисер: Рідлі Скотт
Актори: Крістіан Бейл, Джоел Едґертон, Джон Туртурро, Аарон Пол, Сіґурні Вівер, Бен Кінґслі, Індіра Варма, Бен Мендельсон, Марія Вальверде, Хіам Аббасс, Ісаак Ендрюс та ін.

Сюжет:
Старозавітна історія про великого пророка Мойсея і звільнення єврейського народу з єгипетського полону. Мойсей з’явився на світ у ті часи, коли фараон наказав убивати всіх новонароджених хлопчиків єврейського походження. Щоб врятувати його, мати поклала малюка в кошик з очерету та відправила вниз по Нілу. Дитину знайшла дочка фараона, яка усиновила його і ростила поруч з Рамзесом – майбутнім фараоном. Багато років потому, ставши чоловіком, Мойсей біжить з Єгипту, а потім повертається туди за велінням Господа, щоб позбавити свій народ від рабства...


Тривалість: 02:30:20
Якість: 720p-mini
Відео:
кодек:
розмір кадру: 1280 x 534
бітрейт: 2603 кб/с

Аудіо:
мова: українська
переклад: професійний дубльований
кодек: 5.1
бітрейт: 384 кб/с

Субтитри:
мова: українська (форсовані)
тип: програмні (м'які)
формат: *.srt
MediaInfo
General
Unique ID : 43164213456528038697005783123047719149 (0x2079200801EC80C7E39CDAD29DF7A0ED)
Complete name : /mnt/disk_d/Video/Exodus.Gods.and.Kings.2014.Ukr.Dub..720p-mini.UAGet.mkv
Format : Matroska
Format version : Version 4 / Version 2
File size : 3.14 GiB
Duration : 2h 30mn
Overall bit rate : 2 988 Kbps
Movie name : Вихід: Боги та царі / Exodus: Gods and Kings (2014) 720p-mini -=UAGet=-
Encoded date : UTC 2010-02-22 21:41:31
Writing application : mkvmerge v7.3.0 ('Nouages') 64bit built on Nov 4 2014 12:34:56
Writing library : libebml v1.3.0 + libmatroska v1.4.1
Attachements : poster.jpg
DURATION : 02:29:03.983000000
NUMBER_OF_FRAMES : 12
NUMBER_OF_BYTES : 566
_STATISTICS_WRITING_APP : mkvmerge v7.3.0 ('Nouages') 64bit built on Nov 4 2014 12:34:56
_STATISTICS_WRITING_DATE_UTC : 2015-04-10 09:53:54
_STATISTICS_TAGS : BPS DURATION NUMBER_OF_FRAMES NUMBER_OF_BYTES

Video
ID : 1
Format : AVC
Format/Info : Advanced Video Codec
Format profile : [email protected]
Format settings, CABAC : Yes
Format settings, ReFrames : 11 frames
Codec ID : V_MPEG4/ISO/AVC
Duration : 2h 30mn
Bit rate : 2 603 Kbps
Width : 1 280 pixels
Height : 534 pixels
Display aspect ratio : 2.40:1
Frame rate mode : Constant
Frame rate : 23.976 fps
Color space : YUV
Chroma subsampling : 4:2:0
Bit depth : 8 bits
Scan type : Progressive
Bits/(Pixel*Frame) : 0.159
Stream size : 2.67 GiB (85%)
Title : Вихід: Боги та царі / Exodus: Gods and Kings (2014) 720p-mini -=UAGet=-
Writing library : core 142 r2389 956c8d8
Encoding settings : cabac=1 / ref=12 / deblock=1:-3:-3 / analyse=0x3:0x133 / me=umh / subme=11 / psy=1 / psy_rd=1,10:0,15 / mixed_ref=1 / me_range=64 / chroma_me=1 / trellis=2 / 8x8dct=1 / cqm=0 / deadzone=21,11 / fast_pskip=0 / chroma_qp_offset=-3 / threads=6 / lookahead_threads=1 / sliced_threads=0 / nr=0 / decimate=1 / interlaced=0 / bluray_compat=0 / constrained_intra=0 / bframes=12 / b_pyramid=1 / b_adapt=2 / b_bias=0 / direct=3 / weightb=1 / open_gop=0 / weightp=2 / keyint=240 / keyint_min=24 / scenecut=40 / intra_refresh=0 / rc=2pass / mbtree=0 / bitrate=2603 / ratetol=1,0 / qcomp=1,00 / qpmin=0 / qpmax=69 / qpstep=4 / cplxblur=20,0 / qblur=0,5 / ip_ratio=1,40 / pb_ratio=1,30 / aq=2:0,60
Default : Yes
Forced : Yes
Color primaries : BT.709
Transfer characteristics : BT.709
Matrix coefficients : BT.709

Audio
ID : 2
Format : AC-3
Format/Info : Audio Coding 3
Mode extension : CM (complete main)
Format settings, Endianness : Big
Codec ID : A_AC3
Duration : 2h 30mn
Bit rate mode : Constant
Bit rate : 384 Kbps
Channel(s) : 6 channels
Channel positions : Front: L C R, Side: L R, LFE
Sampling rate : 48.0 KHz
Bit depth : 16 bits
Compression mode : Lossy
Stream size : 413 MiB (13%)
Title : Рідна мова ( 5.1 384 kbps)
Language : Ukrainian
Default : Yes
Forced : Yes

Text
ID : 3
Format : UTF-8
Codec ID : S_TEXT/UTF8
Codec ID/Info : UTF-8 Plain Text
Title : Українські (форсовані)
Language : Ukrainian
Default : Yes
Forced : Yes
Скріншоти




Реліз від:
Особиста оцінка: 9 - давно не бачив настільки якісне кіно


 Трекер:    Зареєстрований   

Завантажити / скачати фільм українською



відео для новачків



 Зареєстрований:   2015-04-10 12:06
 Розмір:   3.14 GB 
 Оцінка фільму:   8.9/10 (Голосів: 17)
   
bot 
робот


З нами з: 30.09.07
Востаннє: 26.05.05
Повідомлень: 15990

2015-03-12 00:14  
Тему перенесено з Фільми в HD до форуму Анонси релізів


Drool

syhestkiy 
Новенький


З нами з: 20.03.12
Востаннє: 04.12.16
Повідомлень: 2

2015-03-12 21:03  
Коли можна очікувати реліз?
Drool 
VIP


З нами з: 17.04.10
Востаннє: 05.12.16
Повідомлень: 1262

2015-03-13 08:11  
syhestkiy написано:
Коли можна очікувати реліз?

Думав, що сьогодні з ранку. Виявилось, що вночі вимикалось світло. Щойно поставив знову кодуватись Sad (1) Зо кінця робочого дня не встигне. В понеділок зранку.

bot 
робот


З нами з: 30.09.07
Востаннє: 26.05.05
Повідомлень: 15990

2015-03-14 10:52  
Тему перенесено з Анонси релізів до форуму Фільми в HD


Drool

RudiUA 
Новенький


З нами з: 02.04.13
Востаннє: 04.12.16
Повідомлень: 5

2015-04-08 21:39  
Шикарний фільм, цікаве розгорнення подій, сюжет захоплює ..
Drool 
VIP


З нами з: 17.04.10
Востаннє: 05.12.16
Повідомлень: 1262

2015-04-10 12:14  
Замінено звукову доріжку на , 48000 Hz, 5.1, s16, 384 kb/s
Sergikcheh 
Новенький


З нами з: 12.04.09
Востаннє: 03.12.16
Повідомлень: 6

2015-04-10 14:39  
На жаль мені не сподобався фільм.
Ваш часовий пояс: GMT + 2 Години

Нова тема   Відповісти