Завантажити та скачати торренти українською


Неймовірні пригоди Адель Блан-Сек / Les aventures extraordinaires d'Adele Blanc-Sec (2010) 720p Ukr/Fra

Нові коментарі

Нова тема   Відповісти
Автор Повідомлення
Anonymous 







2015-03-10 23:04  
Неймовірні пригоди Адель Блан-Сек / Les aventures extraordinaires d'Adele Blanc-Sec (2010) 720p Ukr/Fra



Оригінальні та альтернативний постери







Жанр: фентезі, екшн, детектив, пригодницький
Країна: Франція



Кінокомпанія: EuropaCorp, Apipoulaï, TF1 Films Production, Canal+, Sofica Europacorp, Cofinova 6
Режисер: Люк Бесон / Luc Besson
Актори: Луїз Бурґвен / Louise Bourgoin, Матьє Амальрік / Mathieu Amalric, Жиль Лелуш / Gilles Lellouche, Жан-Поль Рув / Jean-Paul Rouve, Філіп Наон / Philippe Nahon, Ніколас Жіро / Nicolas Giraud, Лор де Клермон-Тоннер / Laure de Clermont-Tonnerre, Фредерік Бель / Frédérique Bel, Мусса Мааскрі / Moussa Maaskri, Ерік Неґар / Eric Naggar та інші

Сюжет:
1912 рік. Безстрашна юна журналістка Адель Блан-Сек готова піти на все заради досягнення мети, навіть якщо для цього їй треба відправитися в Єгипет і зіткнутися з муміями всіх форм і розмірів. А в цей час Париж охоплений панікою: неймовірним чином в музеї природознавства з яйця птеродактиля, вік якого налічує 136 мільйонів років, вилуплюється дитинча і починає тероризувати жителів міста. Але небезпека аніскільки не турбує Адель, яка готова з головою кинутися у вир найнеймовірніших пригод.


Рейтинг MPAA: PG-13 - дітям до 13 років перегляд не бажаний
Вікова категорія: 12+

Тривалість: 01:47:15
Якість: 720p
Відео:
кодек:
розмір кадру: 1280 x 546
бітрейт: 5200 кбіт/с

Аудіо # 1:
мова: українська
переклад: професійний дубльований
кодек: 2.0
бітрейт: 192 кбіт/с

Аудіо # 2:
мова: французька
переклад: оригінал
кодек: 5.1
бітрейт: 1509 кбіт/с
MediaInfo та log
Код:
General
Unique ID                   : 207053105941558693466367365023538338120 (0x9BC4FA494F61743C91663A21340FD948)
Complete name               : Les Aventures Extraordinaires d'Adele Blanc-Sec (2010) [Ukr,Fra] 720p [Hurtom & HDClub].mkv
Format                      : Matroska
Format version              : Version 4 / Version 2
File size                   : 5.17 GiB
Duration                    : 1h 47mn
Overall bit rate            : 6 903 Kbps
Movie name                  : Неймовірні пригоди Адель Блан-Сек / Les Aventures Extraordinaires d'Adele Blanc-Sec (2010) [Ukr,Fra] 720p [Hurtom & HDClub]
Encoded date                : UTC 2015-03-10 20:18:31
Writing application         : mkvmerge v7.7.0 ('Six Voices') 64bit built on Feb 28 2015 23:39:33
Writing library             : libebml v1.3.1 + libmatroska v1.4.2
DURATION                    : 01:47:15.200000000
NUMBER_OF_FRAMES            : 201100
NUMBER_OF_BYTES             : 154444800
_STATISTICS_WRITING_APP     : mkvmerge v7.7.0 ('Six Voices') 64bit built on Feb 28 2015 23:39:33
_STATISTICS_WRITING_DATE_UT : 2015-03-10 20:18:31
_STATISTICS_TAGS            : BPS DURATION NUMBER_OF_FRAMES NUMBER_OF_BYTES

Video
ID                          : 1
Format                      : AVC
Format/Info                 : Advanced Video Codec
Format profile              : [email protected]
Format settings, CABAC      : Yes
Format settings, ReFrames   : 11 frames
Codec ID                    : V_MPEG4/ISO/AVC
Duration                    : 1h 47mn
Bit rate                    : 5 200 Kbps
Width                       : 1 280 pixels
Height                      : 546 pixels
Display aspect ratio        : 2.35:1
Frame rate mode             : Constant
Frame rate                  : 24.000 fps
Color space                 : YUV
Chroma subsampling          : 4:2:0
Bit depth                   : 8 bits
Scan type                   : Progressive
Bits/(Pixel*Frame)          : 0.310
Stream size                 : 3.79 GiB (73%)
Title                       : Неймовірні пригоди Адель Блан-Сек / Les aventures extraordinaires d'Adèle Blanc-Sec / Необычайные приключения Адель 720p [HDClub-EncoderN1]
Writing library             : core 119 r2106 07efeb4
Encoding settings           : cabac=1 / ref=11 / deblock=1:-2:-2 / analyse=0x3:0x113 / me=umh / subme=10 / psy=1 / psy_rd=1.00:0.00 / mixed_ref=1 / me_range=48 / chroma_me=1 / trellis=2 / 8x8dct=1 / cqm=0 / deadzone=21,11 / fast_pskip=0 / chroma_qp_offset=-2 / threads=6 / sliced_threads=0 / nr=0 / decimate=1 / interlaced=0 / bluray_compat=0 / constrained_intra=0 / bframes=8 / b_pyramid=2 / b_adapt=2 / b_bias=0 / direct=3 / weightb=1 / open_gop=0 / weightp=2 / keyint=240 / keyint_min=24 / scenecut=40 / intra_refresh=0 / rc_lookahead=80 / rc=2pass / mbtree=1 / bitrate=5200 / ratetol=1.0 / qcomp=0.60 / qpmin=0 / qpmax=69 / qpstep=4 / cplxblur=20.0 / qblur=0.5 / ip_ratio=1.40 / aq=1:1.00
Language                    : English
Default                     : Yes
Forced                      : No
DURATION                    : 01:47:15.209000000
NUMBER_OF_FRAMES            : 154445
NUMBER_OF_BYTES             : 4182347246
_STATISTICS_WRITING_APP     : mkvmerge v7.7.0 ('Six Voices') 64bit built on Feb 28 2015 23:39:33
_STATISTICS_WRITING_DATE_UT : 2015-03-10 20:18:31
_STATISTICS_TAGS            : BPS DURATION NUMBER_OF_FRAMES NUMBER_OF_BYTES

Audio #1
ID                          : 2
Format                      : AC-3
Format/Info                 : Audio Coding 3
Mode extension              : CM (complete main)
Format settings, Endianness : Big
Codec ID                    : A_AC3
Duration                    : 1h 47mn
Bit rate mode               : Constant
Bit rate                    : 192 Kbps
Channel(s)                  : 2 channels
Channel positions           : Front: L R
Sampling rate               : 48.0 KHz
Bit depth                   : 16 bits
Compression mode            : Lossy
Stream size                 : 147 MiB (3%)
Title                       : Dub [TET] 2.0 192 kbps [Hurtom-Gelios]
Language                    : Ukrainian
Default                     : Yes
Forced                      : No

Audio #2
ID                          : 3
Format                      :
Format/Info                 : Digital Theater Systems
Mode                        : 16
Format settings, Endianness : Big
Codec ID                    : A_DTS
Duration                    : 1h 47mn
Bit rate mode               : Constant
Bit rate                    : 1 509 Kbps
Channel(s)                  : 6 channels
Channel positions           : Front: L C R, Side: L R, LFE
Sampling rate               : 48.0 KHz
Bit depth                   : 16 bits
Compression mode            : Lossy
Stream size                 : 1.13 GiB (22%)
Title                       : Original 5.1 1509 kbps
Language                    : French
Default                     : No
Forced                      : No


Код:
[info]: frame I:1695  Avg QP:12.89  size:180427
[info]: frame P:32627 Avg QP:15.24  size: 56287
[info]: frame B:120123 Avg QP:18.49  size: 16983
[info]: consecutive B-frames:  2.4%  2.4%  7.1% 15.6% 18.0% 45.2%  6.0%  1.7%  1.7%
[info]: mb I  I16..4:  3.4% 72.1% 24.6%
[info]: mb P  I16..4:  1.9% 11.0%  1.9%  P16..4: 33.4% 29.7% 18.5%  0.0%  0.0%    skip: 3.7%
[info]: mb B  I16..4:  0.3%  1.5%  0.3%  B16..8: 38.9% 15.4%  5.0%  direct: 6.4%  skip:32.1%  L0:46.5% L1:40.0% BI:13.5%
[info]: 8x8 transform intra:74.0% inter:60.1%
[info]: direct mvs  spatial:97.9% temporal:2.1%
[info]: coded y,uvDC,uvAC intra: 84.6% 91.9% 79.9% inter: 34.7% 28.8% 12.5%
[info]: i16 v,h,dc,p: 78%  8%  5%  9%
[info]: i8 v,h,dc,ddl,ddr,vr,hd,vl,hu: 16%  8% 10%  8% 12% 12% 11% 11% 11%
[info]: i4 v,h,dc,ddl,ddr,vr,hd,vl,hu: 29%  7%  5%  7% 11% 11% 10%  9% 10%
[info]: i8c dc,h,v,p: 52% 16% 18% 14%
[info]: Weighted P-Frames: Y:3.0% UV:2.0%
[info]: ref P L0: 42.0% 10.3% 19.0%  7.1%  6.4%  4.0%  3.9%  2.0%  2.1%  1.4%  1.6%  0.2%  0.0%
[info]: ref B L0: 66.3% 14.0%  6.9%  3.9%  2.7%  2.3%  1.7%  1.2%  0.6%  0.3%
[info]: ref B L1: 90.9%  9.1%
[info]: kb/s:5199.33




Джерела та подяки: &
ріп відео, оригінальний звук - EncoderN1 (HDClub); українська доріжка - Gelios - зведення, slavik_v_z - запис з ТБ; українізовані постери - Gelios, zed (всі - Гуртом).


ЗАЛИШАЙТЕСЬ ЯКОМОГА ДОВШЕ НА РОЗДАЧІ!

СКАЧАВ САМ - ДАЙ СКАЧАТИ ІНШИМ


 Трекер:    Зареєстрований   

Завантажити / скачати фільм українською



відео для новачків



 Зареєстрований:   2015-03-10 23:04
 Розмір:   5.17 GB 
 Оцінка фільму:   4.7/10 (Голосів: 18)
   
ArteMiY 
Свій


З нами з: 08.07.08
Востаннє: 06.12.16
Повідомлень: 71

2015-03-21 18:59  
дітям до 13 років перегляд не бажаний за вийнятком декількох сцен Wink (1)
Anonymous 







2015-03-21 19:03  
ArteMiY, так, це німецьке видання режисерської версії, в ній присутні дві коротенькі сцени - в машині на початку та у ванній (на 5му скріншоті).
Ваш часовий пояс: GMT + 2 Години

Нова тема   Відповісти