Завантажити та скачати торренти українською


Закони привабливості / Laws of Attraction (2004) HDTV 1080i 2xUkr/Eng | Sub Eng

Нові коментарі

Нова тема   Відповісти
Автор Повідомлення
Anonymous 







2015-03-10 21:05  
Закони привабливості / Laws of Attraction (2004) HDTV 1080i 2xUkr/Eng | Sub Eng



Українізований постер



Жанр: мелодрама, комедія
Країна: Ірландія, Велика Британія, Німеччина



Кінокомпанія: Deep River Productions, Irish DreamTime, Initial Entertainment Group (IEG), Fern Valley Limited, Intermedia Productions, MHF Zweite Academy Film, Mobius Pictures, Stratus Film Co.
Режисер: Пітер Ховітт / Peter Howitt
Актори: Пірс Броснан / Pierce Brosnan, Джуліан Мур / Julianne Moore, Майкл Шин / Michael Sheen, Паркер Позі / Parker Posey, Френсіс Фішер / Frances Fisher, Нора Данн / Nora Dunn, Хезер Енн Нюрнберг / Heather Ann Nurnberg та інші

Сюжет:
Два успішних адвокати знайомляться у залі суду, захищаючи протилежні сторони на шлюборозлучному процесі. Колишнє подружжя, клієнти Деніела та Одрі, претендують на замок, що знаходиться в Ірландії. Адвокати їдуть туди, щоб на місці розібратися у ситуації. Але під похмурим ірландським небом, серед пагорбів і полів, два супротивники відчувають легкий потяг один до одного, але категорично не бажають визнати це почуття, потрапляють на національне ірландське свято, і після ночі бурхливих веселощів Деніел та Одрі прокидаються чоловіком і дружиною...


Рейтинг MPAA: PG-13 - дітям до 13 років перегляд не бажаний
Вікова категорія: 12+

Тривалість: 01:30:02
Якість: HDTV 1080i
Відео:
кодек: MPEG-2
розмір кадру: 1920 x 1080
бітрейт: 17,1 Мбіт/с

Аудіо # 1:
мова: українська
переклад: двоголосий закадровий
ролі озвучили: Михайло Жонін та Лідія Муращенко
кодек: 2.0
бітрейт: 192 кбіт/с

Аудіо # 2: Lipton DVD Collection
мова: українська
переклад: багатоголосий закадровий
ролі озвучили: Михайло Тишин, Тетяна Антонова? ще один жіночий і один чоловічий голоси
кодек: 5.1
бітрейт: 384 кбіт/с

Аудіо # 3:
мова: англійська
переклад: оригінал
кодек: 5.1
бітрейт: 448 кбіт/с

Субтитри:
мова: англійська
тип: програмні (м'які)
формат: *.srt

Збережено оригінальні розділи
MediaInfo
Код:
General
Unique ID                   : 186742374349052966507952870018180671926 (0x8C7D45E78DC86F7FB9BC4CD0B59369B6)
Complete name               : Laws of Attraction (2004) [2xUkr,Eng sub.Eng] HDTV 1080i [Hurtom & HDClub].mkv
Format                      : Matroska
Format version              : Version 4 / Version 2
File size                   : 11.6 GiB
Duration                    : 1h 30mn
Overall bit rate mode       : Variable
Overall bit rate            : 18.5 Mbps
Movie name                  : Закони привабливості / Laws of Attraction (2004) [2xUkr,Eng sub.Eng] HDTV 1080i [Hurtom & HDClub]
Encoded date                : UTC 2015-03-13 16:34:50
Writing application         : mkvmerge v7.7.0 ('Six Voices') 64bit built on Feb 28 2015 23:39:33
Writing library             : libebml v1.3.1 + libmatroska v1.4.2
DURATION                    : 01:30:01.600000000
NUMBER_OF_FRAMES            : 168800
NUMBER_OF_BYTES             : 129638400
_STATISTICS_WRITING_APP     : mkvmerge v7.7.0 ('Six Voices') 64bit built on Feb 28 2015 23:39:33
_STATISTICS_WRITING_DATE_UT : 2015-03-13 16:34:50
_STATISTICS_TAGS            : BPS DURATION NUMBER_OF_FRAMES NUMBER_OF_BYTES

Video
ID                          : 1
Format                      : MPEG Video
Format version              : Version 2
Format profile              : [email protected]
Format settings, BVOP       : Yes
Format settings, Matrix     : Custom
Format settings, GOP        : M=3, N=15
Format settings, picture st : Frame
Codec ID                    : V_MPEG2
Codec ID/Info               : MPEG 1 or 2 Video
Duration                    : 1h 30mn
Bit rate mode               : Variable
Bit rate                    : 17.1 Mbps
Maximum bit rate            : 80.0 Mbps
Width                       : 1 920 pixels
Height                      : 1 080 pixels
Display aspect ratio        : 16:9
Frame rate mode             : Constant
Frame rate                  : 29.970 fps
Color space                 : YUV
Chroma subsampling          : 4:2:0
Bit depth                   : 8 bits
Scan type                   : Interlaced
Scan order                  : Top Field First
Compression mode            : Lossy
Bits/(Pixel*Frame)          : 0.275
Time code of first frame    : 00:00:00;00
Time code source            : Group of pictures header
GOP, Open/Closed            : Open
Stream size                 : 10.7 GiB (92%)
Title                       : Закони привабливості / Laws of Attraction / Законы привлекательности (2004) HDTV 1080i (MPEG-2) [HDClub-RekoJ]
Language                    : English
Default                     : Yes
Forced                      : No
GOP, Open/Closed of first f : Closed

Audio #1
ID                          : 2
Format                      : AC-3
Format/Info                 : Audio Coding 3
Mode extension              : CM (complete main)
Format settings, Endianness : Big
Codec ID                    : A_AC3
Duration                    : 1h 30mn
Bit rate mode               : Constant
Bit rate                    : 192 Kbps
Channel(s)                  : 2 channels
Channel positions           : Front: L R
Sampling rate               : 48.0 KHz
Bit depth                   : 16 bits
Compression mode            : Lossy
Stream size                 : 124 MiB (1%)
Title                       : DVO [Novyj] 2.0 192 kbps [2015, Hurtom-patriot2305]
Language                    : Ukrainian
Default                     : Yes
Forced                      : No

Audio #2
ID                          : 3
Format                      : AC-3
Format/Info                 : Audio Coding 3
Mode extension              : CM (complete main)
Format settings, Endianness : Big
Codec ID                    : A_AC3
Duration                    : 1h 30mn
Bit rate mode               : Constant
Bit rate                    : 384 Kbps
Channel(s)                  : 6 channels
Channel positions           : Front: L C R, Side: L R, LFE
Sampling rate               : 48.0 KHz
Bit depth                   : 16 bits
Compression mode            : Lossy
Stream size                 : 247 MiB (2%)
Title                       : MVO [Lipton DVD Collection] 5.1 384 kbps [HDClub-RekoJ]
Language                    : Ukrainian
Default                     : No
Forced                      : No

Audio #3
ID                          : 4
Format                      : AC-3
Format/Info                 : Audio Coding 3
Mode extension              : CM (complete main)
Format settings, Endianness : Big
Codec ID                    : A_AC3
Duration                    : 1h 30mn
Bit rate mode               : Constant
Bit rate                    : 448 Kbps
Channel(s)                  : 6 channels
Channel positions           : Front: L C R, Side: L R, LFE
Sampling rate               : 48.0 KHz
Bit depth                   : 16 bits
Compression mode            : Lossy
Stream size                 : 289 MiB (2%)
Title                       : Original 5.1 448 kbps
Language                    : English
Default                     : No
Forced                      : No

Text
ID                          : 5
Format                      : UTF-8
Codec ID                    : S_TEXT/UTF8
Codec ID/Info               : UTF-8 Plain Text
Title                       : R1
Language                    : English
Default                     : No
Forced                      : No

Menu
00:00:00.000                : en:Начало
00:05:17.250                : en:Новый адвокат
00:10:37.103                : en:"Я согласна"
00:14:25.798                : en:Семинар
00:19:38.110                : en:Обед экспромтом
00:25:18.484                : en:Дело закрыто
00:31:11.002                : en:Шанс встретиться с Сериной
00:36:54.145                : en:Преждевременное торжество
00:40:29.360                : en:Делёж имущества
00:45:48.245                : en:Путешествие в Замок Рока
00:52:38.756                : en:Опрос персонала
00:58:37.114                : en:Выпили и поженились
01:02:51.601                : en:Законный брак
01:06:42.065                : en:Назад к работе
01:15:09.739                : en:Примерение
01:21:03.659                : en:Второй шанс
01:25:32.160                : en:Конец




Джерела та подяки: &
відео, оригінальні звук та субтитри - RekoJ (HDClub); українська доріжка (Новий канал) - patriot2305 -зведення, slavik_v_z - запис з ТБ; українізований постер - maksym1990; фільмографії акторів та інформація про озвучення - Віктор (всі - Гуртом).

13.03.2015 о 19.00 реліз оновлено - замінено звукову доріжку від Нового каналу на якіснішу.



ЗАЛИШАЙТЕСЬ ЯКОМОГА ДОВШЕ НА РОЗДАЧІ!

СКАЧАВ САМ - ДАЙ СКАЧАТИ ІНШИМ


Срібний реліз (на рейтинг впливає 50% завантаженого)
 Трекер:    Зареєстрований   

Завантажити / скачати фільм українською



відео для новачків



 Зареєстрований:   2015-03-13 19:01
 Розмір:   11.61 GB 
 Оцінка фільму:   4.1/10 (Голосів: 16)
   
Anonymous 







2015-03-10 21:12  
ДВДшну багатоголоску не поставив першою через гірший переклад. Незабаром викладу ріп у 720p також.
Gelios 
Відео Гуртом - дизайнер
Відео Гуртом - дизайнер


З нами з: 03.09.11
Востаннє: 09.12.16
Повідомлень: 1882

2015-03-10 21:15  
igor911
Яка тут якість звуку?
Минулої п'ятниці була трансляція по Новому.

Anonymous 







2015-03-10 21:26  
Gelios, якість запису нормальна, але в оригінальному релізі з ейчдіклабу було моно 96 кбіт/с, ...не знав, що буде скоро по ТБ, якщо буде якісніша доріжка - заміню.

Додано через 9 хвилин 8 секунд:
Ось спектр доріжки з Нового


Anonymous 







2015-03-13 19:11  
Реліз оновлено, замінив звукову доріжку від Нового каналу на якіснішу з нещодавньої трансляції.
Ваш часовий пояс: GMT + 2 Години

Нова тема   Відповісти