Завантажити та скачати торренти українською


Щось. Дилогія / The Thing. Dilogy (1982-2011) 720p-mini Ukr | Sub Eng

Нові коментарі

Нова тема   Відповісти
Автор Повідомлення
vitalicio 
VIP


З нами з: 28.06.09
Востаннє: 08.12.16
Повідомлень: 275

2015-03-10 20:39  
Щось. Дилогія / The Thing. Dilogy (1982-2011) 720p-mini Ukr | Sub Eng


Щось. Дилогія / The Thing. Dilogy (1982-2011) 720p-mini Ukr | Sub Eng
Щось / The Thing (1982) 720p-mini Ukr | Sub Ukr/Eng

Щось / The Thing (1982) 720p-mini Ukr | Sub Ukr/Eng




Жанр: Жахи, фантастика, трилер
Країна: США

Top 250 #167

Кінокомпанія: Universal Pictures
Режисер: Джон Карпентер / John Carpenter
Актори: Курт Расел / Kurt Russell, Уілфорд Брімлі, Т.К. Картер, Девід Кленнон, Кіт Девід, Річард А. Дайсарт, Чарльз Хеллахан, Пітер Мелоуні, Річард Мейсер, Дональд Моффет

Сюжет:
Команді вчених американської дослідницької бази в Антарктиці доведеться зіткнутися з нез'ясовним, жахливим кошмаром. Відрізані від усього світу полярники вступають у нерівну сутичку з інопланетною тварюкою, яка пробудилася після тисячолітньої сплячки в льодах, нещадною істотою, яка прокинулося і ... зголодніла ... «Щось» вважається не тільки кращим фільмом відомого фахівця з жахів, режисера Джона Карпентера, але й мабуть одним з кращих фантастичних фільмів минулого двадцятого століття. Картина виключно напружена. Відмінна, страшна музика. Спец-ефекти початку вісімдесятих зроблені настільки реально, що навіть сьогодні виглядають більш ніж гідно ...


Тривалість: 01:48:42
Якість: 720р-mini
Відео:
кодек:
розмір кадру: 1280 х 544
бітрейт: 2490 кб/с

Аудіо:
мова: українська
переклад: багатоголосий закадровий
кодек: 5.1
бітрейт: 384 кб/с

Джерело озвучення:


Субтитри # 1:
мова: українська
тип: програмні (м'які)
формат: *.srt

Субтитри # 2:
мова: англійська
тип: програмні (м'які)
формат: *.srt
MediaInfo
General
Unique ID : 247862443533208920477828298186860303934 (0xBA7891F936E1FCED8E7BD901883C963E)
Complete name : G:\uTorrent HD- video\The Thing.Dilogy.1982-2011(ukr.).720p\The Thing.1982(ukr.).720p.mkv
Format : Matroska
Format version : Version 4 / Version 2
File size : 2.18 GiB
Duration : 1h 48mn
Overall bit rate : 2 875 Kbps
Movie name : The Thing.1982(ukr.).720p.by [email protected]
Encoded date : UTC 2015-02-25 13:51:41
Writing application : mkvmerge v6.1.0 ('Old Devil') built on Mar 4 2013 09:10:42
Writing library : libebml v1.3.0 + libmatroska v1.4.0
Attachements : poster.jpg

Video
ID : 1
Format : AVC
Format/Info : Advanced Video Codec
Format profile : [email protected]
Format settings, CABAC : Yes
Format settings, ReFrames : 9 frames
Codec ID : V_MPEG4/ISO/AVC
Duration : 1h 48mn
Bit rate : 2 490 Kbps
Width : 1 280 pixels
Height : 544 pixels
Display aspect ratio : 2.35:1
Frame rate mode : Constant
Frame rate : 23.976 fps
Color space : YUV
Chroma subsampling : 4:2:0
Bit depth : 8 bits
Scan type : Progressive
Bits/(Pixel*Frame) : 0.149
Stream size : 1.85 GiB (85%)
Title : The Thing.1982(ukr.).720p
Writing library : core 130 r2273 b3065e6
Encoding settings : cabac=1 / ref=9 / deblock=1:-3:-3 / analyse=0x3:0x113 / me=umh / subme=10 / psy=1 / psy_rd=1.00:0.20 / mixed_ref=1 / me_range=48 / chroma_me=1 / trellis=2 / 8x8dct=1 / cqm=0 / deadzone=21,11 / fast_pskip=0 / chroma_qp_offset=-3 / threads=4 / lookahead_threads=1 / sliced_threads=0 / nr=0 / decimate=0 / interlaced=0 / bluray_compat=0 / constrained_intra=0 / bframes=5 / b_pyramid=2 / b_adapt=2 / b_bias=0 / direct=3 / weightb=1 / open_gop=0 / weightp=2 / keyint=250 / keyint_min=23 / scenecut=40 / intra_refresh=0 / rc_lookahead=60 / rc=2pass / mbtree=1 / bitrate=2490 / ratetol=1.0 / qcomp=0.60 / qpmin=0 / qpmax=69 / qpstep=4 / cplxblur=20.0 / qblur=0.5 / vbv_maxrate=50000 / vbv_bufsize=50000 / nal_hrd=none / ip_ratio=1.40 / aq=1:1.00
Language : English
Default : Yes
Forced : No

Audio
ID : 2
Format : AC-3
Format/Info : Audio Coding 3
Mode extension : CM (complete main)
Format settings, Endianness : Big
Codec ID : A_AC3
Duration : 1h 48mn
Bit rate mode : Constant
Bit rate : 384 Kbps
Channel(s) : 6 channels
Channel positions : Front: L C R, Side: L R, LFE
Sampling rate : 48.0 KHz
Bit depth : 16 bits
Compression mode : Lossy
Stream size : 299 MiB (13%)
Title : The Thing.1982..[email protected]/s.Ukr.Багатоголосий (Так треба продакшн)
Language : Ukrainian
Default : Yes
Forced : Yes

Text #1
ID : 3
Format : UTF-8
Codec ID : S_TEXT/UTF8
Codec ID/Info : UTF-8 Plain Text
Title : Sub.Ukr
Language : Ukrainian
Default : Yes
Forced : Yes

Text #2
ID : 4
Format : UTF-8
Codec ID : S_TEXT/UTF8
Codec ID/Info : UTF-8 Plain Text
Title : Sub.Eng.Full
Language : English
Default : No
Forced : No
Скріншоти


Джерело: Власний ріп
Особиста оцінка: 8 - мені сподобалося
Щось / The Thing (2011) 720p-mini Ukr | Sub Eng

Щось / The Thing (2011) 720p-mini Ukr | Sub Eng


Щось. Дилогія / The Thing. Dilogy (1982-2011) 720p-mini Ukr | Sub Eng


Жанр: фантастика, жахи, трилер
Країна: США, Канада



Кінокомпанія: Universal Pictures, Morgan Creek Productions, Strike Entertainment
Режисер: Маттіс ван Хайнінґен мол.
Актори: Мері Елізабет Вінстед, Джоел Едґертон, Ульріх Томсен, Адевале Акіннуойе-Аґбадже...

Сюжет:
Антарктика – ідеальне сховище, багато таємниць приховують гігантські шари льоду. Зачаровані перспективою відкрити невідоме серед снігової пустелі, норвезькі науковці натрапили на бункер, де переховуються істоти явно не з цієї планети. Все, що потрібно тепер – вижити.


Тривалість: 01:43:00
Якість: 720р-mini
Відео:
кодек:
розмір кадру: 1280 х 536
бітрейт: 2585 кб/с

Аудіо:
мова: українська
переклад: професійний дубльований (Кінотеатральний дубляж)
кодек: 5.1
бітрейт: 448 кб/с

Субтитри:
мова: англійська
тип: програмні (м'які)
формат: *.srt
MediaInfo
General
Unique ID : 228980991260019134248743019645772981880 (0xAC442280B3561A91B5DC4DDF630F6678)
Complete name : G:\uTorrent HD- video\The Thing.Dilogy.1982-2011(ukr.).720p\The Thing.2011(ukr.).720p.mkv
Format : Matroska
Format version : Version 4 / Version 2
File size : 2.18 GiB
Duration : 1h 43mn
Overall bit rate : 3 035 Kbps
Movie name : The Thing.2011(ukr.).720p.by [email protected]
Encoded date : UTC 2015-02-25 08:00:11
Writing application : mkvmerge v6.1.0 ('Old Devil') built on Mar 4 2013 09:10:42
Writing library : libebml v1.3.0 + libmatroska v1.4.0
Attachements : poster.jpg

Video
ID : 1
Format : AVC
Format/Info : Advanced Video Codec
Format profile : [email protected]
Format settings, CABAC : Yes
Format settings, ReFrames : 9 frames
Codec ID : V_MPEG4/ISO/AVC
Duration : 1h 43mn
Bit rate : 2 585 Kbps
Width : 1 280 pixels
Height : 536 pixels
Display aspect ratio : 2.40:1
Frame rate mode : Constant
Frame rate : 23.976 fps
Color space : YUV
Chroma subsampling : 4:2:0
Bit depth : 8 bits
Scan type : Progressive
Bits/(Pixel*Frame) : 0.157
Stream size : 1.82 GiB (83%)
Title : The Thing.2011(ukr.).720p
Writing library : core 130 r2273 b3065e6
Encoding settings : cabac=1 / ref=9 / deblock=1:-3:-3 / analyse=0x3:0x113 / me=umh / subme=10 / psy=1 / psy_rd=1.00:0.20 / mixed_ref=1 / me_range=48 / chroma_me=1 / trellis=2 / 8x8dct=1 / cqm=0 / deadzone=21,11 / fast_pskip=0 / chroma_qp_offset=-3 / threads=4 / lookahead_threads=1 / sliced_threads=0 / nr=0 / decimate=0 / interlaced=0 / bluray_compat=0 / constrained_intra=0 / bframes=5 / b_pyramid=2 / b_adapt=2 / b_bias=0 / direct=3 / weightb=1 / open_gop=0 / weightp=2 / keyint=250 / keyint_min=23 / scenecut=40 / intra_refresh=0 / rc_lookahead=60 / rc=2pass / mbtree=1 / bitrate=2585 / ratetol=1.0 / qcomp=0.60 / qpmin=0 / qpmax=69 / qpstep=4 / cplxblur=20.0 / qblur=0.5 / vbv_maxrate=50000 / vbv_bufsize=50000 / nal_hrd=none / ip_ratio=1.40 / aq=1:1.00
Language : English
Default : Yes
Forced : No

Audio
ID : 2
Format : AC-3
Format/Info : Audio Coding 3
Mode extension : CM (complete main)
Format settings, Endianness : Big
Codec ID : A_AC3
Duration : 1h 43mn
Bit rate mode : Constant
Bit rate : 448 Kbps
Channel(s) : 6 channels
Channel positions : Front: L C R, Side: L R, LFE
Sampling rate : 48.0 KHz
Bit depth : 16 bits
Compression mode : Lossy
Stream size : 330 MiB (15%)
Title : The Thing.2011..[email protected]/s.Ukr.Dub.
Language : Ukrainian
Default : Yes
Forced : Yes

Text
ID : 3
Format : UTF-8
Codec ID : S_TEXT/UTF8
Codec ID/Info : UTF-8 Plain Text
Title : Sub.Eng.SDH
Language : English
Default : No
Forced : No
Скріншоти


Джерело: Власний ріп
Особиста оцінка: 8 - мені сподобалося


Срібний реліз (на рейтинг впливає 50% завантаженого)
 Трекер:    Зареєстрований   

Завантажити / скачати фільм українською



відео для новачків



 Зареєстрований:   2015-03-10 20:39
 Розмір:   4.37 GB 
 Оцінка фільму:   10/10 (Голосів: 8)
   
XXX) 
VIP


З нами з: 10.10.13
Востаннє: 08.12.16
Повідомлень: 345

2015-03-10 22:31  
ахахаах...що?
kysel 
Частий відвідувач


З нами з: 28.06.12
Востаннє: 09.12.16
Повідомлень: 29

2015-03-10 22:35  
Переправ розмір кадру
vitalicio 
VIP


З нами з: 28.06.09
Востаннє: 08.12.16
Повідомлень: 275

2015-03-10 23:03  
kysel
Ok !

igor911 
Відео Гуртом
Відео Гуртом


З нами з: 18.01.08
Востаннє: 11.12.16
Повідомлень: 5225

2015-03-10 23:58  
Дуже втомився, тому виправив оформлення релізу сам - заголовки, спойлери, постери, імдб (2)

Додано через 1 хвилину 48 секунд:

vitalicio, тобі залишилось вказати джерело укр.доріжки (1) + з якого каналу.

Ua.bos_01 
VIP


З нами з: 22.06.15
Востаннє: 06.12.16
Повідомлень: 1291

2015-08-15 12:16  
Класний фільм! Свого часу мав на касеті, потім на СД, а тепер на Вінчестері. :-)
Ваш часовий пояс: GMT + 2 Години

Нова тема   Відповісти