Завантажити та скачати торренти українською


Цар Скорпіонів / The Scorpion King (2002) 720p 2хUkr/Eng | Sub Eng

Нові коментарі

Нова тема   Відповісти
Автор Повідомлення
Anonymous 







2015-03-10 11:37  
Цар Скорпіонів / The Scorpion King (2002) 720p 2хUkr/Eng | Sub Eng



Альтернативні та оригінальний постери







Жанр: фентезі, бойовик, трилер, пригодницький
Країна: США, Німеччина, Бельгія



Кінокомпанія: Universal Pictures, Alphaville Films, BT Film, Kalima Productions GmbH & Co. KG, World Wrestling Entertainment (WWE)
Режисер: Чак Рассел / Chuck Russell
Актори: Двейн Джонсон / Dwayne Johnson, Стівен Бренд / Steven Brand, Келлі Ху / Kelly Hu, Бернард Хілл / Bernard Hill, Ґранд Хеслов / Grant Heslov, Пітер Фацінеллі / Peter Facinelli та інші

Сюжет:
Ця історія сталася 5 тисяч років тому в Єгипті, ще задовго до побудови перших пірамід. Злий правитель і могутній воїн Мемнон вирішив поневолити усі народи, що живуть у пустелі. Зі своєю численною армією Мемнон виграє битви одну за одною. Удача супроводжує жорстокого лиходія, тому що всі злодіяння Мемнон робить, опираючись на пророкування свого провидця. Залишилася тільки кілька непокірних народів у пустелі, які ще протистоять владі Мемнона.

Ті кілька племен, що ще залишились, наймають воїна акадця Метаєса - людини, що вбиває за гроші - щоб той убив провидця Мемнона. Опинившись у ворожому таборі, Метаєс на свій подив виявляє, що ясновидець - це гарна молода жінка Кассандра. Він залишає їй життя і бере з собою в пустелю, щоб виманити Мемнона з його міста-фортеці Гоморри. Єдине, що може заспокоїти тепер Метаєса - це смерть Мемнона ...


Рейтинг MPAA: PG-13 - дітям до 13 років перегляд не бажаний
Вікова категорія: 12+

Тривалість: 01:31:29
Якість: 720p [CRiSC]
Відео:
кодек:
розмір кадру: 1278x544
бітрейт: 8249 кбіт/с

Аудіо # 1:
мова: українська
переклад: професійний дубльований
ролі дублювали: Двейн Джонсон — Михайло Жонін, Бренскомб Річмонд — Олег Лепенець, Келлі Г'ю/Провидиця — Лариса Руснак, Стівен Бренд/Мемнон — Дмитро Завадський, Микола Боклан?, Дмитро Лінартович? та інші.
кодек: 5.1
бітрейт: 384 кбіт/с

Аудіо # 2:
мова: українська
переклад: багатоголосий закадровий - Так Треба Продакшн на замовлення ICTV
ролі озвучили: Двейн Джонсон — Олег Стальчук, Юрій Гребельник, Дмитро Терещук? і один жіночий голос
кодек: 2.0
бітрейт: 192 кбіт/с

Аудіо # 3:
мова: англійська
переклад: оригінал
кодек: 5.1
бітрейт: 1509 кбіт/с

Субтитри:
мова: англійська
тип: програмні (м'які)
формат: *.srt

Збережено оригінальні розділи, як на Blu-ray.
MediaInfo
Код:
General
Unique ID                   : 200777841407062444178667245250685142345 (0x970C67DB87F88E7695EFA2E5C82F8549)
Complete name               : The Scorpion King (2002) [2xUkr,Eng sub.Eng] 720p [Hurtom & HDClub].mkv
Format                      : Matroska
Format version              : Version 4 / Version 2
File size                   : 6.60 GiB
Duration                    : 1h 31mn
Overall bit rate            : 10.3 Mbps
Movie name                  : Цар Скорпіонів / The Scorpion King (2002) [2xUkr,Eng sub.Eng] 720p [Hurtom & HDClub]
Encoded date                : UTC 2015-03-10 08:23:57
Writing application         : mkvmerge v7.7.0 ('Six Voices') 64bit built on Feb 28 2015 23:39:33
Writing library             : libebml v1.3.1 + libmatroska v1.4.2
Attachements                : cover.jpg
DURATION                    : 01:23:21.910000000
NUMBER_OF_FRAMES            : 615
NUMBER_OF_BYTES             : 19078
_STATISTICS_WRITING_APP     : mkvmerge v7.7.0 ('Six Voices') 64bit built on Feb 28 2015 23:39:33
_STATISTICS_WRITING_DATE_UT : 2015-03-10 08:23:57
_STATISTICS_TAGS            : BPS DURATION NUMBER_OF_FRAMES NUMBER_OF_BYTES

Video
ID                          : 1
Format                      : AVC
Format/Info                 : Advanced Video Codec
Format profile              : [email protected]
Format settings, CABAC      : Yes
Format settings, ReFrames   : 12 frames
Codec ID                    : V_MPEG4/ISO/AVC
Duration                    : 1h 31mn
Bit rate                    : 8 249 Kbps
Width                       : 1 278 pixels
Height                      : 544 pixels
Display aspect ratio        : 2.35:1
Frame rate mode             : Constant
Frame rate                  : 23.976 fps
Color space                 : YUV
Chroma subsampling          : 4:2:0
Bit depth                   : 8 bits
Scan type                   : Progressive
Bits/(Pixel*Frame)          : 0.495
Stream size                 : 5.14 GiB (78%)
Title                       : Цар Скорпіонів / The Scorpion King / Царь скорпионов (2002) 720p [CRiSC]
Writing library             : core 125 r2200 999b753
Encoding settings           : cabac=1 / ref=12 / deblock=1:-3:-3 / analyse=0x3:0x133 / me=umh / subme=11 / psy=1 / psy_rd=1.05:0.00 / mixed_ref=1 / me_range=48 / chroma_me=1 / trellis=2 / 8x8dct=1 / cqm=0 / deadzone=21,11 / fast_pskip=0 / chroma_qp_offset=-2 / threads=12 / lookahead_threads=2 / sliced_threads=0 / nr=0 / decimate=1 / interlaced=0 / bluray_compat=0 / constrained_intra=0 / bframes=9 / b_pyramid=2 / b_adapt=2 / b_bias=0 / direct=3 / weightb=1 / open_gop=0 / weightp=2 / keyint=250 / keyint_min=23 / scenecut=40 / intra_refresh=0 / rc_lookahead=40 / rc=2pass / mbtree=0 / bitrate=8249 / ratetol=1.0 / qcomp=0.60 / qpmin=0 / qpmax=69 / qpstep=4 / cplxblur=20.0 / qblur=0.5 / vbv_maxrate=62500 / vbv_bufsize=78125 / nal_hrd=none / ip_ratio=1.40 / pb_ratio=1.30 / aq=1:0.80
Language                    : English
Default                     : Yes
Forced                      : No
DURATION                    : 01:31:28.984000000
NUMBER_OF_FRAMES            : 131604
NUMBER_OF_BYTES             : 5654547812
_STATISTICS_WRITING_APP     : mkvmerge v7.7.0 ('Six Voices') 64bit built on Feb 28 2015 23:39:33
_STATISTICS_WRITING_DATE_UT : 2015-03-10 08:23:57
_STATISTICS_TAGS            : BPS DURATION NUMBER_OF_FRAMES NUMBER_OF_BYTES

Audio #1
ID                          : 2
Format                      : AC-3
Format/Info                 : Audio Coding 3
Mode extension              : CM (complete main)
Format settings, Endianness : Big
Codec ID                    : A_AC3
Duration                    : 1h 31mn
Bit rate mode               : Constant
Bit rate                    : 384 Kbps
Channel(s)                  : 6 channels
Channel positions           : Front: L C R, Side: L R, LFE
Sampling rate               : 48.0 KHz
Bit depth                   : 16 bits
Compression mode            : Lossy
Stream size                 : 251 MiB (4%)
Title                       : Dub [Novyj] 5.1 384 kbps [Hurtom-robotron005]
Language                    : Ukrainian
Default                     : Yes
Forced                      : No

Audio #2
ID                          : 3
Format                      : AC-3
Format/Info                 : Audio Coding 3
Mode extension              : CM (complete main)
Format settings, Endianness : Big
Codec ID                    : A_AC3
Duration                    : 1h 31mn
Bit rate mode               : Constant
Bit rate                    : 192 Kbps
Channel(s)                  : 2 channels
Channel positions           : Front: L R
Sampling rate               : 48.0 KHz
Bit depth                   : 16 bits
Compression mode            : Lossy
Stream size                 : 126 MiB (2%)
Title                       : MVO [ICTV-TakTrebaProduction] 2.0 192 kbps [Hurtom-robotron005]
Language                    : Ukrainian
Default                     : No
Forced                      : No

Audio #3
ID                          : 4
Format                      :
Format/Info                 : Digital Theater Systems
Mode                        : 16
Format settings, Endianness : Big
Codec ID                    : A_DTS
Duration                    : 1h 31mn
Bit rate mode               : Constant
Bit rate                    : 1 509 Kbps
Channel(s)                  : 6 channels
Channel positions           : Front: L C R, Side: L R, LFE
Sampling rate               : 48.0 KHz
Bit depth                   : 24 bits
Compression mode            : Lossy
Stream size                 : 987 MiB (15%)
Title                       : Original 5.1 1509 kbps
Language                    : English
Default                     : No
Forced                      : No

Text
ID                          : 5
Format                      : UTF-8
Codec ID                    : S_TEXT/UTF8
Codec ID/Info               : UTF-8 Plain Text
Language                    : English
Default                     : No
Forced                      : No

Menu
00:00:00.000                : en:The Kill and Akkadian
00:03:48.019                : en:The Rise of Memnon
00:05:04.012                : en:A Clan of Cutthroats
00:08:33.179                : en:Three Against Memnon
00:11:34.443                : en:Betrayed
00:15:59.541                : en:Fire Ants
00:21:34.710                : en:Gomorrah
00:27:40.158                : en:A Forced Hand
00:29:49.496                : en:On the Run
00:32:52.929                : en:Mathayus' Prisoner
00:39:11.766                : en:Killer in the Storm
00:45:16.004                : en:Blood of the Scorpion
00:51:00.515                : en:A Battle with Balthazar
00:56:12.118                : en:Visions of Death
01:03:42.109                : en:The Invaders
01:06:50.631                : en:A Simply Test
01:11:35.874                : en:Mathayus Strikes
01:19:41.151                : en:The Scorpion Sting
01:21:43.356                : en:Hail to the King
01:24:42.410                : en:End Titles




Джерела та подяки: &
ріп відео, оригінальні звук та субтитри - CRiSC (HDbits), madoff (HDClub); українські доріжки - robotron005; українізовані постери - zgryvus, Воїн; фільмографії акторів та інформація про озвучення - Віктор (всі - Гуртом).


ЗАЛИШАЙТЕСЬ ЯКОМОГА ДОВШЕ НА РОЗДАЧІ!

СКАЧАВ САМ - ДАЙ СКАЧАТИ ІНШИМ


Срібний реліз (на рейтинг впливає 50% завантаженого)
 Трекер:    Зареєстрований   

Завантажити / скачати фільм українською



відео для новачків



 Зареєстрований:   2015-03-10 11:37
 Розмір:   6.6 GB 
 Оцінка фільму:   4.6/10 (Голосів: 17)
   
Інші релізи
Anonymous 







2016-11-25 13:48  
Відновив роздачу з ex.ua

Додано через 17 секунд:

прохання підтримати.

Ваш часовий пояс: GMT + 2 Години

Нова тема   Відповісти