Завантажити та скачати торренти українською


Шосте чуття (Шосте відчуття) / The Sixth Sense (1999) 720p Ukr/Eng | Sub Ukr/Eng

Нові коментарі

Нова тема   Відповісти
Автор Повідомлення
Anonymous 







2015-03-10 01:27  
Шосте чуття (Шосте відчуття) / The Sixth Sense (1999) 720p Ukr/Eng | Sub Ukr/Eng



Альтернативний та оригінальний постери





Жанр: драма, містика, трилер
Країна: США

Top 250 #164

Кінокомпанія: Hollywood Pictures, Spyglass Entertainment, Kennedy/Marshall Company, Barry Mendel Productions
Режисер: М. Найт Шьямалан / M. Night Shyamalan
Актори: Брюс Вілліс / Bruce Willis, Хейлі Джоел Осмент / Haley Joel Osment, Тоні Коллетт / Toni Collette, Олівія Вільямс / Olivia Williams, Тревор Морган / Trevor Morgan, Доні Волберґ / Donnie Wahlberg, Пітер Ентоні Тембекіс / Peter Anthony Tambakis та інші

Сюжет:
Дитячий психіатр Малкольм Кроу стикається з дивним випадком: восьмилітнього Коула відвідують страшні видіння - примари померлих. Всі ці люди колись були вбиті, і тепер вони обрушують на малюка свій гнітючий страх і відчайдушний гнів. Як лікар, Малкольм безсилий допомогти. Але як людина, він намагається знайти ключ до жахливого світу Коула, в якому віє дихання смерті і розпускаються страшні квіти болю.


Рейтинг MPAA: PG-13 - дітям до 13 років перегляд не бажаний
Вікова категорія: 12+

Тривалість: 01:47:29
Якість: 720p
Відео:
кодек:
розмір кадру: 1280 х 720
бітрейт: 9068 кбіт/с [crf=16.4]

Аудіо # 1:
мова: українська
переклад: двоголосий закадровий
ролі озвучили: Олег Лепенець та Ніна Касторф
кодек: 5.1
бітрейт: 384 кбіт/с

Аудіо # 2: (погана якість запису)
мова: українська
переклад: двоголосий закадровий
ролі озвучили: Олесь Гімбаржевський та жіночий голос
кодек: 5.1
бітрейт: 384 кбіт/с

Аудіо # 3:
мова: англійська
переклад: оригінал
кодек: 5.1
бітрейт: 640 кбіт/с

Субтитри # 1:
мова: українська
тип: програмні (м'які)
формат: *.srt
переклад: greyknightnemo (з оригіналу)
редагування: Віктор (aka w2958l)

Субтитри # 2:
мова: англійська
тип: програмні (м'які)
формат: *.ass

Збережено оригінальні розділи, як на Blu-ray.
MediaInfo
Код:
General
Unique ID                   : 199011317614436316767672871233463816774 (0x95B82F8299CE942BBBB72A0D984C9246)
Complete name               : The Sixth Sense (1999) [2xUkr,Eng sub.Ukr,Eng] 720p [Hurtom & HDClub].mkv
Format                      : Matroska
Format version              : Version 4 / Version 2
File size                   : 8.02 GiB
Duration                    : 1h 47mn
Overall bit rate            : 10.7 Mbps
Movie name                  : Шосте чуття / Шосте відчуття / The Sixth Sense (1999) [2xUkr,Eng sub.Ukr,Eng] 720p [Hurtom & HDClub]
Encoded date                : UTC 2015-03-09 22:19:41
Writing application         : mkvmerge v7.7.0 ('Six Voices') 64bit built on Feb 28 2015 23:39:33
Writing library             : libebml v1.3.1 + libmatroska v1.4.2
Attachements                : Cover.jpg
DURATION                    : 01:37:45.360000000
NUMBER_OF_FRAMES            : 864
NUMBER_OF_BYTES             : 54913
_STATISTICS_WRITING_APP     : mkvmerge v7.7.0 ('Six Voices') 64bit built on Feb 28 2015 23:39:33
_STATISTICS_WRITING_DATE_UT : 2015-03-09 22:19:41
_STATISTICS_TAGS            : BPS DURATION NUMBER_OF_FRAMES NUMBER_OF_BYTES

Video
ID                          : 1
Format                      : AVC
Format/Info                 : Advanced Video Codec
Format profile              : [email protected]
Format settings, CABAC      : Yes
Format settings, ReFrames   : 9 frames
Codec ID                    : V_MPEG4/ISO/AVC
Duration                    : 1h 47mn
Bit rate                    : 9 068 Kbps
Width                       : 1 280 pixels
Height                      : 720 pixels
Display aspect ratio        : 16:9
Frame rate mode             : Constant
Frame rate                  : 23.976 fps
Color space                 : YUV
Chroma subsampling          : 4:2:0
Bit depth                   : 8 bits
Scan type                   : Progressive
Bits/(Pixel*Frame)          : 0.410
Stream size                 : 6.80 GiB (85%)
Title                       : Шосте чуття / Шосте відчуття / The Sixth Sense / Шестое чувство (1999) 720p [HDClub-Toshik]
Writing library             : core 142 r2491kMod 24e4fed
Encoding settings           : cabac=1 / ref=9 / deblock=1:-3:-3 / analyse=0x3:0x133 / me=tesa / subme=11 / psy=1 / fade_compensate=0.00 / psy_rd=1.00:0.00 / mixed_ref=1 / me_range=32 / chroma_me=1 / trellis=2 / 8x8dct=1 / cqm=0 / deadzone=21,11 / fast_pskip=0 / chroma_qp_offset=-2 / threads=12 / lookahead_threads=2 / sliced_threads=0 / nr=0 / decimate=1 / interlaced=0 / bluray_compat=0 / constrained_intra=0 / fgo=0 / bframes=7 / b_pyramid=2 / b_adapt=2 / b_bias=0 / direct=3 / weightb=1 / open_gop=0 / weightp=2 / keyint=240 / keyint_min=23 / scenecut=40 / intra_refresh=0 / rc=crf / mbtree=0 / crf=16.4000 / qcomp=0.60 / qpmin=0 / qpmax=69 / qpstep=4 / ip_ratio=1.40 / pb_ratio=1.20 / aq=1:0.85
Language                    : English
Default                     : Yes
Forced                      : No
DURATION                    : 01:47:21.644000000
NUMBER_OF_FRAMES            : 154445
NUMBER_OF_BYTES             : 7471766404
_STATISTICS_WRITING_APP     : mkvmerge v7.7.0 ('Six Voices') 64bit built on Feb 28 2015 23:39:33
_STATISTICS_WRITING_DATE_UT : 2015-03-09 22:19:41
_STATISTICS_TAGS            : BPS DURATION NUMBER_OF_FRAMES NUMBER_OF_BYTES

Audio #1
ID                          : 2
Format                      : AC-3
Format/Info                 : Audio Coding 3
Mode extension              : CM (complete main)
Format settings, Endianness : Big
Codec ID                    : A_AC3
Duration                    : 1h 47mn
Bit rate mode               : Constant
Bit rate                    : 384 Kbps
Channel(s)                  : 6 channels
Channel positions           : Front: L C R, Side: L R, LFE
Sampling rate               : 48.0 KHz
Bit depth                   : 16 bits
Compression mode            : Lossy
Stream size                 : 295 MiB (4%)
Title                       : DVO [2+2] 5.1 384 kbps [Hurtom-_oles]
Language                    : Ukrainian
Default                     : Yes
Forced                      : No

Audio #2
ID                          : 3
Format                      : AC-3
Format/Info                 : Audio Coding 3
Mode extension              : CM (complete main)
Format settings, Endianness : Big
Codec ID                    : A_AC3
Duration                    : 1h 47mn
Bit rate mode               : Constant
Bit rate                    : 384 Kbps
Channel(s)                  : 6 channels
Channel positions           : Front: L C R, Side: L R, LFE
Sampling rate               : 48.0 KHz
Bit depth                   : 16 bits
Compression mode            : Lossy
Stream size                 : 295 MiB (4%)
Title                       : DVO [NTN] 5.1 384 kbps [Hurtom-_oles]
Language                    : Ukrainian
Default                     : No
Forced                      : No

Audio #3
ID                          : 4
Format                      : AC-3
Format/Info                 : Audio Coding 3
Mode extension              : CM (complete main)
Format settings, Endianness : Big
Codec ID                    : A_AC3
Duration                    : 1h 47mn
Bit rate mode               : Constant
Bit rate                    : 640 Kbps
Channel(s)                  : 6 channels
Channel positions           : Front: L C R, Side: L R, LFE
Sampling rate               : 48.0 KHz
Bit depth                   : 16 bits
Compression mode            : Lossy
Stream size                 : 492 MiB (6%)
Title                       : Original 5.1 640 kbps
Language                    : English
Default                     : No
Forced                      : No

Text #1
ID                          : 5
Format                      : UTF-8
Codec ID                    : S_TEXT/UTF8
Codec ID/Info               : UTF-8 Plain Text
Title                       : Ukr full [Hurtom-greyknightnemo,w2958l]
Language                    : Ukrainian
Default                     : No
Forced                      : No

Text #2
ID                          : 6
Format                      : ASS
Codec ID                    : S_TEXT/ASS
Codec ID/Info               : Advanced Sub Station Alpha
Compression mode            : Lossless
Title                       : Eng full
Language                    : English
Default                     : No
Forced                      : No

Menu
00:00:00.000                : en:Opening Credits
00:02:51.171                : en:Uninvited Guest
00:12:23.075                : en:Sanctuary
00:17:15.701                : en:Strange Happenings
00:20:18.300                : en:Mind Reading Games
00:26:15.407                : en:Anniversary Dinner
00:32:20.229                : en:Setting Goals
00:34:28.691                : en:Freak!
00:41:27.776                : en:Locked in the Dungeon
00:46:20.444                : en:Bedtime Stories and Secrets
00:54:05.283                : en:Someone's In the Kitchen
01:00:41.596                : en:Trouble in the Family
01:07:41.057                : en:The Only One Who Can Help
01:09:06.976                : en:Replay
01:15:46.458                : en:Kyra
01:27:06.220                : en:The School Play
01:31:06.043                : en:Communication
01:36:15.811                : en:Letting Go
01:42:17.131                : en:End Credits




Джерела та подяки: &
ріп відео, оригінальні звук та субтитри - Toshik27162 (HDClub); українські доріжки - 2+2: _oles (зведення), Technomate - запис з ТБ; НТН - Givi; українські субтитри - greyknightnemo (переклад), Віктор (aka w2958l) - редагування, українізовані постери - Igrik; фільмографії акторів та інформація про озвучення - Віктор (всі - Гуртом).


ЗАЛИШАЙТЕСЬ ЯКОМОГА ДОВШЕ НА РОЗДАЧІ!

СКАЧАВ САМ - ДАЙ СКАЧАТИ ІНШИМ


Золотий реліз (завантажене не впливає на рейтинг)
 Трекер:    Зареєстрований   

Завантажити / скачати фільм українською



відео для новачків



 Зареєстрований:   2015-03-10 01:27
 Розмір:   8.02 GB 
 Оцінка фільму:   5.6/10 (Голосів: 21)
   
Інші релізи
   Шосте чуття / The Sixth Sense (1999) 1080p Ukr/Eng | Sub Ukr/Eng ratbol  7 / 0   10.58 GB   2012-05-27 17:54 
   Шосте чуття / The Sixth Sense (1999) Ukr/Eng | Sub Ukr/Eng _oles  9 / 0   2.18 GB   2012-05-23 10:06 
   Шосте відчуття / The sixth sense (1999) Ukr/Eng Givi  5 / 0   2.18 GB   2011-04-04 21:29 
Ua.bos_01 
VIP


З нами з: 22.06.15
Востаннє: 06.12.16
Повідомлень: 1291

2015-08-15 12:10  
Чудовий фільм! Неймовірна гра Брюса Вілліса. Сам же зміст фільму на висоті. Найт Шіамалан - як завжди не підкачав. Раджу до перегляду.
малюк94 
VIP


З нами з: 03.03.10
Востаннє: 04.12.16
Повідомлень: 410

2016-02-06 01:38  
станьте на роздачу хтось.....
Ваш часовий пояс: GMT + 2 Години

Нова тема   Відповісти