Завантажити та скачати торренти українською


Цар Скорпіонів / The Scorpion King (2002) 1080p 2хUkr/Eng | Sub Eng

Нові коментарі

Нова тема   Відповісти
Автор Повідомлення
Anonymous 







2015-03-09 23:20  
Цар Скорпіонів / The Scorpion King (2002) 1080p 2хUkr/Eng | Sub Eng



Альтернативні та оригінальний постери







Жанр: фентезі, бойовик, трилер, пригодницький
Країна: США, Німеччина, Бельгія



Кінокомпанія: Universal Pictures, Alphaville Films, BT Film, Kalima Productions GmbH & Co. KG, World Wrestling Entertainment (WWE)
Режисер: Чак Рассел / Chuck Russell
Актори: Двейн Джонсон / Dwayne Johnson, Стівен Бренд / Steven Brand, Келлі Ху / Kelly Hu, Бернард Хілл / Bernard Hill, Ґранд Хеслов / Grant Heslov, Пітер Фацінеллі / Peter Facinelli та інші

Сюжет:
Ця історія сталася 5 тисяч років тому в Єгипті, ще задовго до побудови перших пірамід. Злий правитель і могутній воїн Мемнон вирішив поневолити усі народи, що живуть у пустелі. Зі своєю численною армією Мемнон виграє битви одну за одною. Удача супроводжує жорстокого лиходія, тому що всі злодіяння Мемнон робить, опираючись на пророкування свого провидця. Залишилася тільки кілька непокірних народів у пустелі, які ще протистоять владі Мемнона.

Ті кілька племен, що ще залишились, наймають воїна акадця Метаєса - людини, що вбиває за гроші - щоб той убив провидця Мемнона. Опинившись у ворожому таборі, Метаєс на свій подив виявляє, що ясновидець - це гарна молода жінка Кассандра. Він залишає їй життя і бере з собою в пустелю, щоб виманити Мемнона з його міста-фортеці Гоморри. Єдине, що може заспокоїти тепер Метаєса - це смерть Мемнона ...


Рейтинг MPAA: PG-13 - дітям до 13 років перегляд не бажаний
Вікова категорія: 12+

Тривалість: 01:31:29
Якість: 1080p [SbR]
Відео:
кодек:
розмір кадру: 1918x816
бітрейт: 17404 кбіт/с [crf=18]

Аудіо # 1:
мова: українська
переклад: професійний дубльований
ролі дублювали: Двейн Джонсон — Михайло Жонін, Бренскомб Річмонд — Олег Лепенець, Келлі Г'ю/Провидиця — Лариса Руснак, Стівен Бренд/Мемнон — Дмитро Завадський, Микола Боклан?, Дмитро Лінартович? та інші.
кодек: 5.1
бітрейт: 384 кбіт/с

Аудіо # 2:
мова: українська
переклад: багатоголосий закадровий - Так Треба Продакшн на замовлення ICTV
ролі озвучили: Двейн Джонсон — Олег Стальчук, Юрій Гребельник, Дмитро Терещук? і один жіночий голос
кодек: 2.0
бітрейт: 192 кбіт/с

Аудіо # 3:
мова: англійська
переклад: оригінал
кодек: 5.1
бітрейт: 1509 кбіт/с

Субтитри:
мова: англійська
тип: програмні (м'які)
формат: *.srt

Збережено оригінальні розділи, як на Blu-ray.
MediaInfo та log
Код:
General
Unique ID                                : 202107962504269800236305286260040479676 (0x980C93E40E4E3E17B65077DFDDB533BC)
Complete name                            : The Scorpion King (2002) [2xUkr,Eng sub.Eng] 1080p [Hurtom & HDClub].mkv
Format                                   : Matroska
Format version                           : Version 4 / Version 2
File size                                : 12.5 GiB
Duration                                 : 1h 31mn
Overall bit rate                         : 19.5 Mbps
Movie name                               : Цар Скорпіонів / The Scorpion King (2002) [2xUkr,Eng sub.Eng] 1080p [Hurtom & HDClub]
Encoded date                             : UTC 2015-03-09 17:39:31
Writing application                      : mkvmerge v7.7.0 ('Six Voices') 64bit built on Feb 28 2015 23:39:33
Writing library                          : libebml v1.3.1 + libmatroska v1.4.2
Attachements                             : cover.jpg / xlog.txt
DURATION                                 : 01:23:21.910000000
NUMBER_OF_FRAMES                         : 615
NUMBER_OF_BYTES                          : 19078
_STATISTICS_WRITING_APP                  : mkvmerge v7.7.0 ('Six Voices') 64bit built on Feb 28 2015 23:39:33
_STATISTICS_WRITING_DATE_UTC             : 2015-03-09 17:39:31
_STATISTICS_TAGS                         : BPS DURATION NUMBER_OF_FRAMES NUMBER_OF_BYTES

Video
ID                                       : 1
Format                                   : AVC
Format/Info                              : Advanced Video Codec
Format profile                           : [email protected]
Format settings, CABAC                   : Yes
Format settings, ReFrames                : 5 frames
Codec ID                                 : V_MPEG4/ISO/AVC
Duration                                 : 1h 31mn
Bit rate                                 : 17.0 Mbps
Width                                    : 1 918 pixels
Height                                   : 816 pixels
Display aspect ratio                     : 2.35:1
Frame rate mode                          : Constant
Frame rate                               : 23.976 fps
Color space                              : YUV
Chroma subsampling                       : 4:2:0
Bit depth                                : 8 bits
Scan type                                : Progressive
Bits/(Pixel*Frame)                       : 0.454
Stream size                              : 10.9 GiB (87%)
Title                                    : Цар Скорпіонів / The Scorpion King / Царь скорпионов (2002) 1080p [HDClub-SbR]
Writing library                          : core 142 r2389+41 02cb608 tMod [[email protected]:2:0 X86_64]
Encoding settings                        : cabac=1 / ref=5 / deblock=1:-2:-2 / analyse=0x3:0x113 / me=umh / subme=11 / psy=1 / fade_compensate=0.00 / psy_rd=1.00:0.00 / mixed_ref=1 / me_range=48 / chroma_me=1 / trellis=2 / 8x8dct=1 / cqm=0 / deadzone=21,11 / fast_pskip=1 / chroma_qp_offset=-2 / threads=12 / lookahead_threads=2 / sliced_threads=0 / nr=0 / decimate=1 / interlaced=0 / bluray_compat=0 / constrained_intra=0 / fgo=0 / bframes=9 / b_pyramid=2 / b_adapt=2 / b_bias=0 / direct=3 / weightb=1 / open_gop=0 / weightp=2 / keyint=250 / keyint_min=23 / scenecut=40 / intra_refresh=0 / rc_lookahead=60 / rc=crf / mbtree=0 / crf=18.0000 / qcomp=0.60 / qpmin=0:0:0 / qpmax=69:69:69 / qpstep=4 / vbv_maxrate=62500 / vbv_bufsize=78125 / crf_max=0.0 / nal_hrd=none / filler=0 / ip_ratio=1.40 / pb_ratio=1.30 / aq=4:0.80 / aq-sensitivity=11.00 / aq-factor=1.00:1.00:1.00 / aq2=1:0.60 / aq2-sensitivity=9.00 / aq2-factor=1.00:1.00:1.00 / aq3=1:[0.60:0.60]:[0.60:0.60]:[0.60:0.60]:[0.60:0.60] / aq3-sensitivity=10.00 / aq3-factor=[1.00:1.00]:[1.00:1.00]:[1.00:1.00] / aq3-boundary=192:64:24
Language                                 : English
Default                                  : Yes
Forced                                   : No
Color primaries                          : BT.709
Transfer characteristics                 : BT.709
Matrix coefficients                      : BT.709

Audio #1
ID                                       : 2
Format                                   : AC-3
Format/Info                              : Audio Coding 3
Mode extension                           : CM (complete main)
Format settings, Endianness              : Big
Codec ID                                 : A_AC3
Duration                                 : 1h 31mn
Bit rate mode                            : Constant
Bit rate                                 : 384 Kbps
Channel(s)                               : 6 channels
Channel positions                        : Front: L C R, Side: L R, LFE
Sampling rate                            : 48.0 KHz
Bit depth                                : 16 bits
Compression mode                         : Lossy
Stream size                              : 251 MiB (2%)
Title                                    : Dub [Novyj] 5.1 384 kbps [Hurtom-robotron005]
Language                                 : Ukrainian
Default                                  : Yes
Forced                                   : No

Audio #2
ID                                       : 3
Format                                   : AC-3
Format/Info                              : Audio Coding 3
Mode extension                           : CM (complete main)
Format settings, Endianness              : Big
Codec ID                                 : A_AC3
Duration                                 : 1h 31mn
Bit rate mode                            : Constant
Bit rate                                 : 192 Kbps
Channel(s)                               : 2 channels
Channel positions                        : Front: L R
Sampling rate                            : 48.0 KHz
Bit depth                                : 16 bits
Compression mode                         : Lossy
Stream size                              : 126 MiB (1%)
Title                                    : MVO [ICTV-TakTrebaProduction] 2.0 192 kbps [Hurtom-robotron005]
Language                                 : Ukrainian
Default                                  : No
Forced                                   : No

Audio #3
ID                                       : 4
Format                                   :
Format/Info                              : Digital Theater Systems
Mode                                     : 16
Format settings, Endianness              : Big
Codec ID                                 : A_DTS
Duration                                 : 1h 31mn
Bit rate mode                            : Constant
Bit rate                                 : 1 509 Kbps
Channel(s)                               : 6 channels
Channel positions                        : Front: L C R, Side: L R, LFE
Sampling rate                            : 48.0 KHz
Bit depth                                : 24 bits
Compression mode                         : Lossy
Stream size                              : 987 MiB (8%)
Title                                    : Original 5.1 1509 kbps
Language                                 : English
Default                                  : No
Forced                                   : No

Text
ID                                       : 5
Format                                   : UTF-8
Codec ID                                 : S_TEXT/UTF8
Codec ID/Info                            : UTF-8 Plain Text
Language                                 : English
Default                                  : No
Forced                                   : No

Menu
00:00:00.000                             : en:The Kill and Akkadian
00:03:48.019                             : en:The Rise of Memnon
00:05:04.012                             : en:A Clan of Cutthroats
00:08:33.179                             : en:Three Against Memnon
00:11:34.443                             : en:Betrayed
00:15:59.541                             : en:Fire Ants
00:21:34.710                             : en:Gomorrah
00:27:40.158                             : en:A Forced Hand
00:29:49.496                             : en:On the Run
00:32:52.929                             : en:Mathayus' Prisoner
00:39:11.766                             : en:Killer in the Storm
00:45:16.004                             : en:Blood of the Scorpion
00:51:00.515                             : en:A Battle with Balthazar
00:56:12.118                             : en:Visions of Death
01:03:42.109                             : en:The Invaders
01:06:50.631                             : en:A Simply Test
01:11:35.874                             : en:Mathayus Strikes
01:19:41.151                             : en:The Scorpion Sting
01:21:43.356                             : en:Hail to the King
01:24:42.410                             : en:End Titles


Код:
[info]: 1918x816p 1:1 @ 24000/1001 fps (cfr)
[info]: color matrix: bt709
[info]: using SAR=1/1
[info]: using cpu capabilities: MMX2 SSE2Fast SSSE3 SSE4.2 AVX
[info]: profile High, level 4.1
[info]: started at Tue Feb 25 13:41:29 2014
[info]: frame I:946   Avg QP:16.64  size:211472
[info]: frame P:29484 Avg QP:17.55  size:125131
[info]: frame B:101176 Avg QP:19.63  size: 79585
[info]: consecutive B-frames:  2.0%  4.1%  6.1% 32.0%  9.8% 32.1%  4.3%  6.7%  1.5%  1.5%
[info]: mb I  I16..4:  3.5% 89.3%  7.1%
[info]: mb P  I16..4:  0.7% 42.0%  1.0%  P16..4: 18.4% 23.0%  7.4%  0.0%  0.0%    skip: 7.5%
[info]: mb B  I16..4:  0.1%  9.9%  0.1%  B16..8: 38.9% 22.5%  4.4%  direct:12.3%  skip:11.8%  L0:42.6% L1:38.9% BI:18.5%
[info]: 8x8 transform intra:96.5% inter:69.4%
[info]: direct mvs  spatial:99.9% temporal:0.1%
[info]: coded y,uvDC,uvAC intra: 97.3% 89.2% 62.1% inter: 67.5% 48.5% 6.1%
[info]: i16 v,h,dc,p: 39% 14% 15% 33%
[info]: i8 v,h,dc,ddl,ddr,vr,hd,vl,hu:  7%  7% 10% 10% 14% 13% 13% 12% 15%
[info]: i4 v,h,dc,ddl,ddr,vr,hd,vl,hu: 10%  6%  9%  8% 15% 14% 13% 11% 13%
[info]: i8c dc,h,v,p: 36% 25% 19% 20%
[info]: Weighted P-Frames: Y:10.2% UV:4.4%
[info]: ref P L0: 47.9% 11.7% 18.8% 12.2%  8.1%  1.3%  0.0%
[info]: ref B L0: 80.9% 13.5%  4.5%  1.0%
[info]: ref B L1: 91.6%  8.4%
[info]: kb/s:17404.03
[info]: encoded 131606 frames, 3.489 fps, 17404.03 kb/s, 11388 MB
[info]: ended at Wed Feb 26 00:10:05 2014
[info]: encoding duration 10:28:36
Оригінал <----------> Ріп








Джерела та подяки: &
ріп відео, оригінальні звук та субтитри - SbR (aka Skazhutin) (HDClub); українські доріжки - robotron005; українізовані постери - zgryvus, Воїн; фільмографії акторів та інформація про озвучення - Віктор (всі - Гуртом).


ЗАЛИШАЙТЕСЬ ЯКОМОГА ДОВШЕ НА РОЗДАЧІ!

СКАЧАВ САМ - ДАЙ СКАЧАТИ ІНШИМ


Срібний реліз (на рейтинг впливає 50% завантаженого)
 Трекер:    Зареєстрований   

Завантажити / скачати фільм українською



відео для новачків



 Зареєстрований:   2015-03-09 23:20
 Розмір:   12.46 GB 
 Оцінка фільму:   4.7/10 (Голосів: 17)
   
Інші релізи
Ваш часовий пояс: GMT + 2 Години

Нова тема   Відповісти