Завантажити та скачати торренти українською


Місто янголів / City of Angels (1998) 720p Ukr/Eng | Sub Eng

Нові коментарі

Нова тема   Відповісти
Автор Повідомлення
Anonymous 







2015-03-08 16:17  
Місто янголів / City of Angels (1998) 720p Ukr/Eng | Sub Eng



Альтернативний та оригінальний постери





Жанр: фентезі, драма, мелодрама
Країна: Німеччина, США



Кінокомпанія: Atlas Entertainment, Monarchy Enterprises B.V., Regency Enterprises, Taurus Film, Warner Bros.
Режисер: Бред Сілберлінґ / Brad Silberling
Актори: Ніколас Кейдж / Nicolas Cage, Меґ Раян / Meg Ryan, Андре Броґер / Andre Braugher, Денніс Франц / Dennis Franz, Колм Фіор / Colm Feore та інші

Сюжет:
Янголи живуть не на небі. Вони незримо існують поруч із людьми, дослухаючись до їхніх думок і спрямовуючи їхні дії, підбадьорюючи і втішаючи у моменти розпачу. Але для них не існує світу людських відчуттів: смаку чорної кави, болю порізаного пальця… та любові. Тому декого з них тягне до людей, і часом янгол втрачає свої крила і перетворюється на простого смертного. Що й стається з героєм фільму, якого привабило на Землю кохання до жінки.


Тривалість: 01:54:13
Якість: 720p [DON]
Відео:
кодек:
розмір кадру: 1280 х 534
бітрейт: 8987 кбіт/с [crf=16.5]

Аудіо # 1:
мова: українська
переклад: двоголосий закадровий
ролі озвучили: Андрій Бурлуцький і Ніна Касторф
кодек: 2.0
бітрейт: 192 кбіт/с

Аудіо # 2:
мова: англійська
переклад: оригінал
кодек: 5.1
бітрейт: 1509 кбіт/с

Аудіо # 3:
мова: англійська
переклад: Коментарі з режисером Бредом Сілберлінґом
кодек: 2.0
бітрейт: 192 кбіт/с

Аудіо # 4:
мова: англійська
переклад: Коментарі з продюсером Чарльзом Ровеном (Charles Roven) та сценаристом Даною Стівенс (Dana Stevens)
кодек: 2.0
бітрейт: 192 кбіт/с

Субтитри #1-2:
мова: англійська (повні, SDH)
тип: програмні (м'які)
формат: *.srt

Збережено оригінальні розділи, як на Blu-ray.
MediaInfo
Код:
General
Unique ID                                : 197483287847382175783214845382856977418 (0x9491E5D37A17796986ACDB62870EAC0A)
Complete name                            : City of Angels (1998) [Ukr,Eng sub.Eng] 720p [Hurtom & HDClub].mkv
Format                                   : Matroska
Format version                           : Version 4 / Version 2
File size                                : 9.01 GiB
Duration                                 : 1h 54mn
Overall bit rate                         : 11.3 Mbps
Movie name                               : Місто янголів / City of Angels (1998) [Ukr,Eng sub.Eng] 720p [Hurtom & HDClub]
Encoded date                             : UTC 2015-03-08 12:40:45
Writing application                      : mkvmerge v7.7.0 ('Six Voices') 64bit built on Feb 28 2015 23:39:33
Writing library                          : libebml v1.3.1 + libmatroska v1.4.2
Attachements                             : cover.jpg / xlog.txt
DURATION                                 : 01:53:46.444000000
NUMBER_OF_FRAMES                         : 1083
NUMBER_OF_BYTES                          : 29215
_STATISTICS_WRITING_APP                  : mkvmerge v7.7.0 ('Six Voices') 64bit built on Feb 28 2015 23:39:33
_STATISTICS_WRITING_DATE_UTC             : 2015-03-08 12:40:45
_STATISTICS_TAGS                         : BPS DURATION NUMBER_OF_FRAMES NUMBER_OF_BYTES

Video
ID                                       : 1
Format                                   : AVC
Format/Info                              : Advanced Video Codec
Format profile                           : [email protected]
Format settings, CABAC                   : Yes
Format settings, ReFrames                : 12 frames
Codec ID                                 : V_MPEG4/ISO/AVC
Duration                                 : 1h 54mn
Bit rate                                 : 8 987 Kbps
Width                                    : 1 280 pixels
Height                                   : 534 pixels
Display aspect ratio                     : 2.40:1
Frame rate mode                          : Constant
Frame rate                               : 23.976 fps
Color space                              : YUV
Chroma subsampling                       : 4:2:0
Bit depth                                : 8 bits
Scan type                                : Progressive
Bits/(Pixel*Frame)                       : 0.548
Stream size                              : 7.17 GiB (80%)
Title                                    : Місто янголів / City of Angels / Город ангелов (1998) 720p [DON]
Writing library                          : core 129 r2245+729M 1a52e03
Encoding settings                        : cabac=1 / ref=12 / deblock=1:-3:-3 / analyse=0x3:0x133 / me=umh / subme=10 / psy=1 / fade_compensate=0.00 / psy_rd=1.00:0.00 / mixed_ref=1 / me_range=32 / chroma_me=1 / trellis=2 / 8x8dct=1 / cqm=0 / deadzone=21,11 / fast_pskip=0 / chroma_qp_offset=-2 / threads=3 / lookahead_threads=1 / sliced_threads=0 / nr=0 / decimate=0 / interlaced=0 / bluray_compat=0 / constrained_intra=0 / fgo=0 / bframes=7 / b_pyramid=2 / b_adapt=2 / b_bias=0 / direct=3 / weightb=1 / open_gop=0 / weightp=2 / keyint=250 / keyint_min=23 / scenecut=40 / intra_refresh=0 / rc=crf / mbtree=0 / crf=16.5 / qcomp=0.60 / qpmin=0 / qpmax=69 / qpstep=4 / ip_ratio=1.35 / pb_ratio=1.25 / aq=3:0.90
Language                                 : English
Default                                  : Yes
Forced                                   : No
DURATION                                 : 01:54:13.514000000
NUMBER_OF_FRAMES                         : 164320
NUMBER_OF_BYTES                          : 7887961682
_STATISTICS_WRITING_APP                  : mkvmerge v7.7.0 ('Six Voices') 64bit built on Feb 28 2015 23:39:33
_STATISTICS_WRITING_DATE_UTC             : 2015-03-08 12:40:45
_STATISTICS_TAGS                         : BPS DURATION NUMBER_OF_FRAMES NUMBER_OF_BYTES

Audio #1
ID                                       : 2
Format                                   : AC-3
Format/Info                              : Audio Coding 3
Mode extension                           : CM (complete main)
Format settings, Endianness              : Big
Codec ID                                 : A_AC3
Duration                                 : 1h 54mn
Bit rate mode                            : Constant
Bit rate                                 : 192 Kbps
Channel(s)                               : 2 channels
Channel positions                        : Front: L R
Sampling rate                            : 48.0 KHz
Bit depth                                : 16 bits
Compression mode                         : Lossy
Stream size                              : 157 MiB (2%)
Title                                    : DVO [1+1] 2.0 192 kbps [Hurtom-ProgBassing]
Language                                 : Ukrainian
Default                                  : Yes
Forced                                   : No

Audio #2
ID                                       : 3
Format                                   :
Format/Info                              : Digital Theater Systems
Mode                                     : 16
Format settings, Endianness              : Big
Codec ID                                 : A_DTS
Duration                                 : 1h 54mn
Bit rate mode                            : Constant
Bit rate                                 : 1 509 Kbps
Channel(s)                               : 6 channels
Channel positions                        : Front: L C R, Side: L R, LFE
Sampling rate                            : 48.0 KHz
Bit depth                                : 16 bits
Compression mode                         : Lossy
Stream size                              : 1.20 GiB (13%)
Title                                    : Original 5.1 1509 kbps
Language                                 : English
Default                                  : No
Forced                                   : No

Audio #3
ID                                       : 4
Format                                   : AC-3
Format/Info                              : Audio Coding 3
Format profile                           : Dolby Digital
Mode extension                           : CM (complete main)
Format settings, Endianness              : Big
Codec ID                                 : A_AC3
Duration                                 : 1h 54mn
Bit rate mode                            : Constant
Bit rate                                 : 192 Kbps
Channel(s)                               : 2 channels
Channel positions                        : Front: L R
Sampling rate                            : 48.0 KHz
Bit depth                                : 16 bits
Compression mode                         : Lossy
Stream size                              : 157 MiB (2%)
Title                                    : Commentary with director Brad Silberling
Language                                 : English
Default                                  : No
Forced                                   : No

Audio #4
ID                                       : 5
Format                                   : AC-3
Format/Info                              : Audio Coding 3
Format profile                           : Dolby Digital
Mode extension                           : CM (complete main)
Format settings, Endianness              : Big
Codec ID                                 : A_AC3
Duration                                 : 1h 54mn
Bit rate mode                            : Constant
Bit rate                                 : 192 Kbps
Channel(s)                               : 2 channels
Channel positions                        : Front: L R
Sampling rate                            : 48.0 KHz
Bit depth                                : 16 bits
Compression mode                         : Lossy
Stream size                              : 157 MiB (2%)
Title                                    : Commentary with Charles Roven and Dana Stevens
Language                                 : English
Default                                  : No
Forced                                   : No

Text #1
ID                                       : 6
Format                                   : UTF-8
Codec ID                                 : S_TEXT/UTF8
Codec ID/Info                            : UTF-8 Plain Text
Language                                 : English
Default                                  : No
Forced                                   : No

Text #2
ID                                       : 7
Format                                   : UTF-8
Codec ID                                 : S_TEXT/UTF8
Codec ID/Info                            : UTF-8 Plain Text
Title                                    : SDH
Language                                 : English
Default                                  : No
Forced                                   : No

Menu
00:00:00.000                             : :00:00:00.000
00:10:13.571                             : :00:10:13.571
00:20:24.557                             : :00:20:24.557
00:31:05.697                             : :00:31:05.697
00:41:18.935                             : :00:41:18.935
00:51:08.274                             : :00:51:08.274
01:01:21.052                             : :01:01:21.052
01:11:53.434                             : :01:11:53.434
01:23:58.867                             : :01:23:58.867
01:33:18.718                             : :01:33:18.718
01:41:57.445                             : :01:41:57.445
01:47:34.448                             : :01:47:34.448




Джерела та подяки: &
ріп відео, оригінальні звук та субтитри - DON (HDbits), madoff (HDClub); українська доріжка - ProgBassing; українізовані постери - Тирік, ika1963; фільмографії акторів та інформація про озвучення - Віктор (всі - Гуртом).


ЗАЛИШАЙТЕСЬ ЯКОМОГА ДОВШЕ НА РОЗДАЧІ!

СКАЧАВ САМ - ДАЙ СКАЧАТИ ІНШИМ


Срібний реліз (на рейтинг впливає 50% завантаженого)
 Трекер:    Зареєстрований   

Завантажити / скачати фільм українською



відео для новачків



 Зареєстрований:   2015-03-08 16:17
 Розмір:   9.01 GB 
 Оцінка фільму:   4.3/10 (Голосів: 16)
   
Інші релізи
   Місто янголів / City of Angels (1998) omm  1 / 0   1.26 GB   2014-07-10 15:44 
   Місто янголів / City of Angels (1998) Ukr/Eng BASTERD-94  2 / 0   2.18 GB   2013-04-25 14:00 
   Місто Янголів / City of Angels (1998) DVD5 Ukr/Eng ProgBassing  1 / 0   3.93 GB   2010-11-06 16:05 
Anonymous 







2015-03-08 16:28  
Також фільм транслювався по ICTV та Новому каналах з іншою озвучкою:
Віктор написано:

Про озвучення трансл. ICTV (+ по новому) (є сирець з ICTV, але не ліквідний)
Ролі озвучили: Олег Стальчук, Дмитро Терещук, Людмила Чиншева і ще один жіночий

ponty 
Свій


З нами з: 23.10.08
Востаннє: 07.12.16
Повідомлень: 95

2015-03-08 20:51  
Вкрай зворушливий фільм..Дивився більше 5 разів у різні часи.
Jack_Daniels 
VIP


З нами з: 30.07.10
Востаннє: 07.12.16
Повідомлень: 298

2015-03-09 13:03  
А файний був актор Ніко, а тепер скотився до якогось "другорядного кіна" Confused
Ваш часовий пояс: GMT + 2 Години

Нова тема   Відповісти