Завантажити та скачати торренти українською


Війна Чарлі Вілсона / Charlie Wilson's War (2007) 1080p Ukr/Eng | Sub Eng

Нові коментарі

Нова тема   Відповісти
Автор Повідомлення
Anonymous 







2015-03-06 18:08  
Війна Чарлі Вілсона / Charlie Wilson's War (2007) 1080p Ukr/Eng | Sub Eng



Оригінальний постер



Жанр: біографічний, історичний, драма, комедія
Країна: США, Німеччина



Кінокомпанія: Universal Pictures, Relativity Media, Participant Media, Playtone, MP Munich Pape Filmproductions, Good Time Charlie Productions
Режисер: Майк Ніколс / Mike Nichols
Актори: Том Генкс / Tom Hanks, Емі Адамс / Amy Adams, Джулія Робертс / Julia Roberts, Філіп Сеймур Гофмен / Philip Seymour Hoffman, Террі Боузман / Terry Bozeman, Брайан Маркінсон / Brian Markinson, Джад Тайлор / Jud Tylor, Хіларі Анжело / Hilary Angelo, Сійя Баттен / Cyia Batten, Емілі Блант / Emily Blunt та інші

Сюжет:
Актуальна для України сьогодні тема: де взяти ефективну зброю для боротьби з навалою РФ? Кіноверсія історії передачі зброї США афганським моджахедам для боротьби з СРСР.
Член Конгресу США від Техасу Чарлі Вілсон, любитель віскі і молоденьких помічниць, веде безтурботне життя лобіста. Єдина його проблема — як уникнути переслідувань прокурора за публічне вживання кокаїну. У цей час СРСР вводить війська в Афганістан. Давня подруга Вілсона — красуня-телеведуча і запекла антикомуністка Джоанн Херрінг (Джулія Робертс) примушує його поїхати в Пакистан і зустрітися з президентом Зія-Уль-Хаком.
У Пакистані Вілсона везуть в табір афганських бiженцiв. Приголомшений стражданнями афганців, Вілсон вирішує зробити все можливе, щоб допомогти силам опору. Особливо його цікавлять способи боротьби з вертольотами Мі-24, що сіють смерть і руйнування в афганських кишлаках.
Повернувшись в Вашингтон, Вілсон знайомиться з офіцером ЦРУ Гастом Авракотосом і його групою. Разом вони розробляють схему фінансування постачань зброї силам афганського опору. За декілька років обсяг фінансування програми зростає в 50 разів. За ці гроші купується сучасна зброя, зокрема ракети «Стінгер», якими успішно можна збивати Мі-24...
Цікава інформація про фільм

  • Фільм знятий за мотивами роману Джорджа Крайла «Війна Чарлі Вілсона» (Charlie Wilson`s War: The Extraordinary Story of the Largest Covert Operation in History, 2003).
  • Асистент майстра з візуальних ефектів отримав серйозні опіки в сцені, де по вертольоту стріляють Стінгером. Спалах пішов не в той бік, куди мав.
  • Зйомки проходили з 12 жовтня 2006 року в Марокко і в Лос-Анджелесі.
  • Universal Pictures International (UPI) Russia вилучила фільм з прокату «через« певної спрямованості картини », в якій Радянський Союз був виставлений не в кращому світлі».
  • Картина Майка Ніколса "Війна Чарлі Вілсона" про конфлікт в Афганістані, яка отримала п'ять номінацій на "Золотий глобус", не вийшла в російський прокат. Засоби масової інформації пов'язують цей факт з явною "антирадянською спрямованістю" стрічки, повідомляє.
  • У Universal Pictures International (UPI) Russia, компанії, котра займається дистрибуцією фільму, послалися на "комерційну нерентабельність" показу картини в Росії.
  • Прем'єру "Війни Чарлі Вілсона" в Росії було заплановано на весну 2008 року, проте напередодні з посиланням на голову відділу кінопрокату UPI Russia Владу Єфремову повідомлялося, що стрічку вилучено з прокату. "Це рішення було ухвалене колегіально разом з головним офісом Universal Pictures через "певну спрямованість картини", - наводилися слова Єфремової.
  • У Роскультурі, яка заборонила свого часу прокат провокаційної комедії "Борат: вивчення американської культури на благо славного народу Казахстану", запевняють, що ніяк не причетні до вилучення з прокату "Війни Чарлі Вілсона". Глава UPI Russia Євген Бегінін заявив, що в рішенні скасувати прокат картини немає ідеологічного підґрунтя: "Ми просто визнали фільм неприбутковим. Не все, що виходить у США, обов'язково буде комерційно успішним у нас".

Рейтинг MPAA: R - особам до 17 років обов'язкова присутність батьків або дорослого опікуна
Вікова категорія: 16+

Тривалість: 01:41:48
Якість: 1080p [CRiSC]
Відео:
кодек:
розмір кадру: 1920 х 1040
бітрейт: 14,3 Мбіт/с [crf=17.5]

Аудіо # -1: ДУБЛЯЖ, ЯКИЙ БУВ У ПРОКАТІ, ВТРАЧЕНО

Аудіо # 1:
мова: українська
переклад: багатоголосий закадровий - Так Треба Продакшн на замовлення ТРК Україна
ролі озвучили: Том Генкс — Анатолій Пашнін, Володимир Терещук, Емі Адамс — Людмила Чиншева і Джулія Робертс — Наталя Поліщук?
кодек: 5.1
бітрейт: 384 кбіт/с

Аудіо # 2:
мова: англійська
переклад: оригінал
кодек: 5.1
бітрейт: 1509 кбіт/с

Субтитри :
мова: англійська
тип: програмні (м'які)
формат: *.srt

Збережено оригінальні розділи, як на Blu-ray.
MediaInfo
Код:
General
Unique ID                   : 238383268676302690765161848629302481983 (0xB356F291E16908D1A0DDDDDF5809543F)
Complete name               : Charlie Wilson's War (2007) [Ukr,Eng sub.Eng] 1080p [Hurtom & HDClub].mkv
Format                      : Matroska
Format version              : Version 4 / Version 2
File size                   : 11.7 GiB
Duration                    : 1h 41mn
Overall bit rate            : 16.5 Mbps
Movie name                  : Війна Чарлі Вілсона / Charlie Wilson's War (2007) [Ukr,Eng sub.Eng] 1080p [Hurtom & HDClub]
Encoded date                : UTC 2015-03-05 10:18:21
Writing application         : mkvmerge v7.7.0 ('Six Voices') 64bit built on Feb 28 2015 23:39:33
Writing library             : libebml v1.3.1 + libmatroska v1.4.2
DURATION                    : 01:30:50.026000000
NUMBER_OF_FRAMES            : 1702
NUMBER_OF_BYTES             : 73509
_STATISTICS_WRITING_APP     : mkvmerge v7.7.0 ('Six Voices') 64bit built on Feb 28 2015 23:39:33
_STATISTICS_WRITING_DATE_UT : 2015-03-05 10:18:21
_STATISTICS_TAGS            : BPS DURATION NUMBER_OF_FRAMES NUMBER_OF_BYTES

Video
ID                          : 1
Format                      : AVC
Format/Info                 : Advanced Video Codec
Format profile              : [email protected]
Format settings, CABAC      : Yes
Format settings, ReFrames   : 4 frames
Codec ID                    : V_MPEG4/ISO/AVC
Duration                    : 1h 41mn
Bit rate                    : 14.3 Mbps
Width                       : 1 920 pixels
Height                      : 1 040 pixels
Display aspect ratio        : 1.85:1
Frame rate mode             : Constant
Frame rate                  : 23.976 fps
Color space                 : YUV
Chroma subsampling          : 4:2:0
Bit depth                   : 8 bits
Scan type                   : Progressive
Bits/(Pixel*Frame)          : 0.298
Stream size                 : 10.1 GiB (87%)
Title                       : Війна Чарлі Вілсона / Charlie Wilson's War / Война Чарли Уилсона (2007) 1080p [CRiSC]
Writing library             : core 125 r2200 999b753
Encoding settings           : cabac=1 / ref=4 / deblock=1:-3:-3 / analyse=0x3:0x133 / me=umh / subme=11 / psy=1 / psy_rd=1.05:0.00 / mixed_ref=1 / me_range=48 / chroma_me=1 / trellis=2 / 8x8dct=1 / cqm=0 / deadzone=21,11 / fast_pskip=0 / chroma_qp_offset=-2 / threads=12 / lookahead_threads=2 / sliced_threads=0 / nr=0 / decimate=1 / interlaced=0 / bluray_compat=0 / constrained_intra=0 / bframes=9 / b_pyramid=2 / b_adapt=2 / b_bias=0 / direct=3 / weightb=1 / open_gop=0 / weightp=2 / keyint=250 / keyint_min=23 / scenecut=40 / intra_refresh=0 / rc_lookahead=40 / rc=crf / mbtree=0 / crf=17.5 / qcomp=0.60 / qpmin=0 / qpmax=69 / qpstep=4 / vbv_maxrate=62500 / vbv_bufsize=78125 / crf_max=0.0 / nal_hrd=none / ip_ratio=1.40 / pb_ratio=1.30 / aq=1:0.80
Language                    : English
Default                     : Yes
Forced                      : No
DURATION                    : 01:41:48.061000000
NUMBER_OF_FRAMES            : 146447
NUMBER_OF_BYTES             : 11139299813
_STATISTICS_WRITING_APP     : mkvmerge v7.7.0 ('Six Voices') 64bit built on Feb 28 2015 23:39:33
_STATISTICS_WRITING_DATE_UT : 2015-03-05 10:18:21
_STATISTICS_TAGS            : BPS DURATION NUMBER_OF_FRAMES NUMBER_OF_BYTES

Audio #1
ID                          : 2
Format                      : AC-3
Format/Info                 : Audio Coding 3
Mode extension              : CM (complete main)
Format settings, Endianness : Big
Codec ID                    : A_AC3
Duration                    : 1h 41mn
Bit rate mode               : Constant
Bit rate                    : 384 Kbps
Channel(s)                  : 6 channels
Channel positions           : Front: L C R, Side: L R, LFE
Sampling rate               : 48.0 KHz
Bit depth                   : 16 bits
Compression mode            : Lossy
Stream size                 : 280 MiB (2%)
Title                       : MVO [Ukraina-TTP] 5.1 384 kbps [Hurtom-bodia87]
Language                    : Ukrainian
Default                     : Yes
Forced                      : No

Audio #2
ID                          : 3
Format                      :
Format/Info                 : Digital Theater Systems
Mode                        : 16
Format settings, Endianness : Big
Codec ID                    : A_DTS
Duration                    : 1h 41mn
Bit rate mode               : Constant
Bit rate                    : 1 509 Kbps
Channel(s)                  : 6 channels
Channel positions           : Front: L C R, Side: L R, LFE
Sampling rate               : 48.0 KHz
Bit depth                   : 24 bits
Compression mode            : Lossy
Stream size                 : 1.07 GiB (9%)
Title                       : Original 5.1 1509 kbps
Language                    : English
Default                     : No
Forced                      : No

Text
ID                          : 4
Format                      : UTF-8
Codec ID                    : S_TEXT/UTF8
Codec ID/Info               : UTF-8 Plain Text
Language                    : English
Default                     : No
Forced                      : No

Menu
00:00:00.000                : :00:00:00.000
00:03:07.437                : :00:03:07.437
00:08:05.735                : :00:08:05.735
00:17:13.866                : :00:17:13.866
00:21:30.288                : :00:21:30.288
00:25:47.587                : :00:25:47.587
00:28:46.224                : :00:28:46.224
00:34:59.514                : :00:34:59.514
00:39:04.884                : :00:39:04.884
00:43:50.127                : :00:43:50.127
00:52:53.503                : :00:52:53.503
00:57:14.556                : :00:57:14.556
01:00:54.025                : :01:00:54.025
01:04:16.143                : :01:04:16.143
01:07:18.701                : :01:07:18.701
01:14:29.131                : :01:14:29.131
01:17:40.906                : :01:17:40.906
01:22:38.787                : :01:22:38.787
01:27:15.229                : :01:27:15.229
01:33:54.670                : :01:33:54.670




Джерела та подяки: &
ріп відео, оригінальні звук та субтитри - CRiSC (HDbits), madoff (HDClub); українська доріжка - bodia87; українізований постер - Gelios; фільмографії акторів та інформація про озвучення - Віктор (всі - Гуртом).


ЗАЛИШАЙТЕСЬ ЯКОМОГА ДОВШЕ НА РОЗДАЧІ!

СКАЧАВ САМ - ДАЙ СКАЧАТИ ІНШИМ


 Трекер:    Зареєстрований   

Завантажити / скачати фільм українською



відео для новачків



 Зареєстрований:   2015-03-06 18:08
 Розмір:   11.72 GB 
 Оцінка фільму:   4.3/10 (Голосів: 16)
   
Ваш часовий пояс: GMT + 2 Години

Нова тема   Відповісти