Завантажити та скачати торренти українською


21 і більше / 21 and Over (2013) 720p Ukr/Eng | Sub Eng

Нові коментарі

Нова тема   Відповісти
Автор Повідомлення
Anonymous 







2015-03-06 14:01  
21 і більше / 21 and Over (2013) 720p Ukr/Eng | Sub Eng

21 і більше / 21 and Over (2013) 720p Ukr/Eng | Sub Eng


Жанр: комедія
Країна: США



Кінокомпанія: Relativity Media
Режисер: Джон Лукас, Скотт Мур
Актори: Скайлар Естін, Сара Райт, Майлз Теллер, Джонатан Кельтц, Джастін Чон, Сара Райт, Джонатан Кельтц, Франсуа Чау, Расселл Ходжкінсон, Деніел Буко, Расселл Меркадо, Джозі Лор

Сюжет:
Студент коледжу Джефф Ченг завжди домагається і робить те, що він задумав. А ось у випадку з двома його близькими друзями Кейсі і Міллером, все інакше. Вони готові тусити і напиватися хоч кожен день, головне не нудьгувати. Саме для цього вони влаштовують для Джефф мегавечірку прямо напередодні дуже важливого іспиту. Починаючи з малого, з пари келихів пива, в результаті хлопці закінчують гучною ​​вечіркою з літрами випивки і дівчатами. На наступний ранок, їх чекає сюрприз.


Тривалість: 01:33:06
Якість:
Відео:
кодек:
розмір кадру: 1280 х 534
бітрейт: 4158 кб/с

Аудіо # 1:
мова: українська
переклад: професійний дубльований
кодек: 2.0
бітрейт: 192 кб/с

Аудіо # 2:
мова: англійська
переклад: оригінал
кодек: 5.1
бітрейт: 1509 кб/с

Субтитри:
мова: англійська
тип: програмні (м'які)
формат: *.srt
MediaInfo
General
Unique ID : 228549645237307600503336619831944702130 (0xABF10F807A3D43DE9185FBF3EAE668B2)
Complete name : D:\21 and Over (2013) 720p [Ukr. Eng] [Sub Eng] [Hurtom].mkv
Format : Matroska
Format version : Version 4 / Version 2
File size : 3.89 GiB
Duration : 1h 33mn
Overall bit rate : 5 978 Kbps
Encoded date : UTC 2015-03-05 20:27:32
Writing application : mkvmerge v7.6.0 ('Garden of Dreams') 64bit built on Feb 8 2015 13:04:34
Writing library : libebml v1.3.1 + libmatroska v1.4.2
DURATION : 01:33:06.560000000
NUMBER_OF_FRAMES : 174580
NUMBER_OF_BYTES : 134077440
_STATISTICS_WRITING_APP : mkvmerge v7.6.0 ('Garden of Dreams') 64bit built on Feb 8 2015 13:04:34
_STATISTICS_WRITING_DATE_UT : 2015-03-05 20:27:32
_STATISTICS_TAGS : BPS DURATION NUMBER_OF_FRAMES NUMBER_OF_BYTES

Video
ID : 1
Format : AVC
Format/Info : Advanced Video Codec
Format profile : [email protected]
Format settings, CABAC : Yes
Format settings, ReFrames : 12 frames
Codec ID : V_MPEG4/ISO/AVC
Duration : 1h 33mn
Bit rate : 4 158 Kbps
Width : 1 280 pixels
Height : 534 pixels
Display aspect ratio : 2.40:1
Frame rate mode : Constant
Frame rate : 23.976 fps
Color space : YUV
Chroma subsampling : 4:2:0
Bit depth : 8 bits
Scan type : Progressive
Bits/(Pixel*Frame) : 0.254
Stream size : 2.70 GiB (70%)
Writing library : core 132 r2323+704+51 d571b1c tMod [[email protected]:2:0 X86_64]
Encoding settings : cabac=1 / ref=12 / deblock=1:-3:-3 / analyse=0x3:0x113 / me=umh / subme=11 / psy=1 / fade_compensate=0.00 / psy_rd=1.05:0.00 / mixed_ref=1 / me_range=32 / chroma_me=1 / trellis=2 / 8x8dct=1 / cqm=0 / deadzone=21,11 / fast_pskip=0 / chroma_qp_offset=-2 / threads=36 / lookahead_threads=4 / sliced_threads=0 / nr=0 / decimate=0 / interlaced=0 / bluray_compat=0 / constrained_intra=0 / fgo=0 / bframes=8 / b_pyramid=2 / b_adapt=2 / b_bias=0 / direct=3 / weightb=1 / open_gop=0 / weightp=2 / keyint=240 / keyint_min=24 / scenecut=40 / intra_refresh=0 / rc=crf / mbtree=0 / crf=16.8000 / qcomp=0.70 / qpmin=0 / qpmax=69 / qpstep=4 / ip_ratio=1.20 / pb_ratio=1.20 / aq=4:0.90 / aq-sensitivity=10.00 / aq-factor=1.00:1.00:1.00 / aq2=0 / aq3=0
Language : English
Default : Yes
Forced : No
DURATION : 01:33:06.540000000
NUMBER_OF_FRAMES : 133943
NUMBER_OF_BYTES : 2984575205
_STATISTICS_WRITING_APP : mkvmerge v7.6.0 ('Garden of Dreams') 64bit built on Feb 8 2015 13:04:34
_STATISTICS_WRITING_DATE_UT : 2015-03-05 20:27:32
_STATISTICS_TAGS : BPS DURATION NUMBER_OF_FRAMES NUMBER_OF_BYTES

Audio #1
ID : 2
Format : AC-3
Format/Info : Audio Coding 3
Mode extension : CM (complete main)
Format settings, Endianness : Big
Codec ID : A_AC3
Duration : 1h 33mn
Bit rate mode : Constant
Bit rate : 192 Kbps
Channel(s) : 2 channels
Channel positions : Front: L R
Sampling rate : 48.0 KHz
Bit depth : 16 bits
Compression mode : Lossy
Stream size : 128 MiB (3%)
Language : Ukrainian
Default : Yes
Forced : No

Audio #2
ID : 3
Format :
Format/Info : Digital Theater Systems
Mode : 16
Format settings, Endianness : Big
Codec ID : A_DTS
Duration : 1h 33mn
Bit rate mode : Constant
Bit rate : 1 509 Kbps
Channel(s) : 6 channels
Channel positions : Front: L C R, Side: L R, LFE
Sampling rate : 48.0 KHz
Bit depth : 24 bits
Compression mode : Lossy
Stream size : 1 005 MiB (25%)
Language : English
Default : No
Forced : No

Text
ID : 4
Format : UTF-8
Codec ID : S_TEXT/UTF8
Codec ID/Info : UTF-8 Plain Text
Language : English
Default : Yes
Forced : No


Джерело:


 Трекер:    Зареєстрований   

Завантажити / скачати фільм українською



відео для новачків



 Зареєстрований:   2015-03-06 14:01
 Розмір:   3.89 GB 
 Оцінка фільму:   7.1/10 (Голосів: 10)
   
Інші релізи
   21 і більше / 21 and Over (2013) AngryBirdsUA  2 / 0   1.45 GB   2015-03-05 21:14 
Ваш часовий пояс: GMT + 2 Години

Нова тема   Відповісти