Завантажити та скачати торренти українською


Солодкий листопад / Sweet November (2001) 720p Ukr/Eng | sub Eng

Нові коментарі

Нова тема   Відповісти
Автор Повідомлення
xfsthe 
Оцифрування книг Гуртом
Оцифрування книг Гуртом


З нами з: 13.02.11
Востаннє: 07.12.16
Повідомлень: 279

2015-03-04 21:34  
Солодкий листопад / Sweet November (2001) 720p Ukr/Eng | sub Eng

Солодкий листопад / Sweet November (2001) 720p Ukr/Eng | sub Eng


Жанр: драма, романтичний
Країна: США



Кінокомпанія: 3 Art Entertainment, Bel Air Entertainment, Warner Bros. Pictures
Режисер: Пет О'Коннор / Pat O'Connor
Актори: Кіану Рівз / Keanu Reeves, Шарліз Терон / Charlize Theron, Джейсон Айзекс / Jason Isaacs, Ґрег Ґерманн / Greg Germann, Ліам Айкен / Liam Aiken, Роберт Джой / Robert Joy, Лорен Ґрем / Lauren Graham, Майкл Розенбаум / Michael Rosenbaum, Френк Ланджелла / Frank Langella, Джейсон Кравіц / Jason Kravits, Рей Байкер / Ray Baker та інші

Сюжет:
Усе своє життя Нельсон Мосс присвячує кар'єрі у рекламному бізнесі. Іншого способу життя він не уявляє або просто не помічає. Але зустрівши на своєму шляху ексцентричну Сару, яка через нього провалила іспит на водійська права, Нельсон змушений провести із нею місяць свого заклопотаного життя. А їй більше і не треба, за один місяць вона змусить його прожити інше життя, яке він досі відмовлявся помічати. Головне - жодних зобов'язань, жодного тиску і жодної закоханості.
Головним саундтреком до фільму є відомий хіт "Enya - Only Time", який додов йому ще більше ніжності і романтичності.


Тривалість: 02:00:13
Якість: 720p
Відео:
кодек:
розмір кадру: 1274 х 720
бітрейт: 8 835 кб/с

Аудіо # 1:
мова: українська
переклад: багатоголосий закадровий
кодек: 2.0
бітрейт: 192 кб/с

Аудіо # 2:
мова: англійська
переклад: оригінал
кодек: 5.1
бітрейт: 384 кб/с

Субтитри:
мова: англійська
тип: програмні (м'які)
формат: *.srt
MediaInfo
General
Unique ID : 86809996626291151245445438272408172285 (0x414EFF485565C7C6257D29CD8254B6FD)
Complete name : /home/xfsthe/Відео/Sweet November (2001) [ukr,eng] sub[eng] 720p.mkv
Format : Matroska
Format version : Version 4 / Version 2
File size : 8.06 GiB
Duration : 2h 0mn
Overall bit rate : 9 602 Kbps
Movie name : Солодкий листопад / Sweet November (2001) 720p
Encoded date : UTC 2015-02-27 18:41:38
Writing application : mkvmerge v6.3.0 ('You can't stop me!') built on Jun 29 2013 11:48:33
Writing library : libebml v1.3.0 + libmatroska v1.4.0

Video
ID : 1
Format : AVC
Format/Info : Advanced Video Codec
Format profile : [email protected]
Format settings, CABAC : Yes
Format settings, ReFrames : 8 frames
Codec ID : V_MPEG4/ISO/AVC
Duration : 2h 0mn
Bit rate : 8 835 Kbps
Width : 1 274 pixels
Height : 720 pixels
Display aspect ratio : 16:9
Frame rate mode : Constant
Frame rate : 23.976 fps
Color space : YUV
Chroma subsampling : 4:2:0
Bit depth : 8 bits
Scan type : Progressive
Bits/(Pixel*Frame) : 0.402
Stream size : 7.42 GiB (92%)
Title : Солодкий листопад / Sweet November (2001) 720p
Writing library : core 128 r2216 198a7ea
Encoding settings : cabac=1 / ref=8 / deblock=1:-2:-2 / analyse=0x3:0x113 / me=umh / subme=11 / psy=1 / psy_rd=1.00:0.05 / mixed_ref=1 / me_range=32 / chroma_me=1 / trellis=2 / 8x8dct=1 / cqm=0 / deadzone=21,11 / fast_pskip=0 / chroma_qp_offset=-4 / threads=6 / lookahead_threads=1 / sliced_threads=0 / nr=0 / decimate=1 / interlaced=0 / bluray_compat=0 / constrained_intra=0 / bframes=8 / b_pyramid=2 / b_adapt=2 / b_bias=0 / direct=1 / weightb=1 / open_gop=0 / weightp=2 / keyint=240 / keyint_min=22 / scenecut=40 / intra_refresh=0 / rc_lookahead=60 / rc=crf / mbtree=0 / crf=18.0 / qcomp=0.60 / qpmin=0 / qpmax=69 / qpstep=4 / vbv_maxrate=50000 / vbv_bufsize=62500 / crf_max=0.0 / nal_hrd=none / ip_ratio=1.40 / pb_ratio=1.30 / aq=2:0.90
Language : English
Default : Yes
Forced : No

Audio #1
ID : 2
Format : AC-3
Format/Info : Audio Coding 3
Mode extension : CM (complete main)
Format settings, Endianness : Big
Codec ID : A_AC3
Duration : 2h 0mn
Bit rate mode : Constant
Bit rate : 192 Kbps
Channel count : 2 channels
Channel positions : Front: L R
Sampling rate : 48.0 KHz
Bit depth : 16 bits
Compression mode : Lossy
Stream size : 165 MiB (2%)
Title : 2.0 @ 192 kbps | Новий канал
Language : Ukrainian
Default : Yes
Forced : No

Audio #2
ID : 3
Format : AC-3
Format/Info : Audio Coding 3
Mode extension : CM (complete main)
Format settings, Endianness : Big
Codec ID : A_AC3
Duration : 2h 0mn
Bit rate mode : Constant
Bit rate : 384 Kbps
Channel count : 6 channels
Channel positions : Front: L C R, Side: L R, LFE
Sampling rate : 48.0 KHz
Bit depth : 16 bits
Compression mode : Lossy
Stream size : 330 MiB (4%)
Title : 5.1 @ 384 kbps
Language : English
Default : No
Forced : No

Text
ID : 4
Format : UTF-8
Codec ID : S_TEXT/UTF8
Codec ID/Info : UTF-8 Plain Text
Language : English
Default : No
Forced : No
Скріншоти





Подяка панові xslim за запис і постер

Джерело: &
Особиста оцінка: 10 - без зайвих вагань рекомендую всім!


Срібний реліз (на рейтинг впливає 50% завантаженого)
 Трекер:    Зареєстрований   

Завантажити / скачати фільм українською



відео для новачків



 Зареєстрований:   2015-03-04 21:34
 Розмір:   8.06 GB 
 Оцінка фільму:   9.6/10 (Голосів: 7)
   
Інші релізи
   Солодкий листопад / Sweet November (2001) AVC Ukr | sub Eng DеLight  7 / 0   2.26 GB   2012-11-09 09:59 
   Солодкий листопад / Sweet November (2001) Ukr/Eng BASTERD-94  7 / 0   2.18 GB   2011-08-21 22:14 
   Солодкий листопад / Sweet November (2001) Snooppy  4 / 0   1.45 GB   2010-02-15 21:00 
kepson 
Новенький


З нами з: 02.04.11
Востаннє: 10.12.16
Повідомлень: 9

2015-11-22 10:30  
Будь ласка, вийдіть на роздачу
Ваш часовий пояс: GMT + 2 Години

Нова тема   Відповісти