Завантажити та скачати торренти українською


З любов'ю, Розі / Love, Rosie (2014) 1080p Ukr/Eng | Sub Eng

Нові коментарі

Нова тема   Відповісти
Останній раз роздавалося rostunio (2016-12-04)
Автор Повідомлення
Anonymous 







2015-03-02 22:22  
З любов'ю, Розі / Love, Rosie (2014) 1080p Ukr/Eng | Sub Eng

З любов'ю, Розі / Love, Rosie (2014) 1080p Ukr/Eng | Sub Eng


Жанр: комедія, романтичний
Країна: Німеччина, Великобританія



Кінокомпанія: Canyon Creek Films, Constantin Film Produktion
Режисер: Крістіан Діттер / Christian Ditter
Актори: Лілі Коллінз / Lily Collins, Сем Клафлін / Sam Claflin, Сукі Вотерхаус / Suki Waterhouse, Темзін Едґертон / Tamsin Egerton, Крістіан Кук / Christian Cooke, Арт Паркінсон / Art Parkinson, Джеймі Вінстон / Jaime Winstone та інші

Сюжет:
Розі та Алекс – найкращі друзі. Вони кохають одне одного, але жоден з них не знаходить сил, щоб висловити свої почуття. І ось уже Алекс переїжджає з Дубліна до Бостону, вступає там у престижний коледж і вони змушені розлучитися. В Америці у Алекса з'являється дівчина, а Розі вагітніє від Ґреґа, свого однокласника. Не дивлячись на зміни у житті обох, Розі та її друг дитинства не втрачають прихильності одне до одного навіть після 12 років розлуки.


Тривалість: 01:42:57
Якість:
Відео:
кодек:
розмір кадру: 1920х816
бітрейт: 9130 кб/с

Аудіо # 1:
мова: українська
переклад: професійний дубльований
кодек: 2.0
бітрейт: 192 кб/с

Аудіо # 2:
мова: англійська
переклад: оригінал
кодек: 5.1
бітрейт: 1510 кб/с

Субтитри:
мова: англійська
тип: програмні (м'які)
формат: *.srt
MediaInfo
General
Unique ID : 209398869538261458819249675681943692605 (0x9D88C15C6B5AA40FA278DB827F7AA53D)
Complete name : E:\Love, Rosie (2014) 1080p [Ukr.Eng] [Sub Eng] [Hurtom].mkv
Format : Matroska
Format version : Version 4 / Version 2
File size : 7.79 GiB
Duration : 1h 42mn
Overall bit rate : 10.8 Mbps
Encoded date : UTC 2015-03-02 20:06:25
Writing application : mkvmerge v7.6.0 ('Garden of Dreams') 64bit built on Feb 8 2015 13:04:34
Writing library : libebml v1.3.1 + libmatroska v1.4.2
DURATION : 01:42:57.248000000
NUMBER_OF_FRAMES : 193039
NUMBER_OF_BYTES : 148253952
_STATISTICS_WRITING_APP : mkvmerge v7.6.0 ('Garden of Dreams') 64bit built on Feb 8 2015 13:04:34
_STATISTICS_WRITING_DATE_UT : 2015-03-02 20:06:25
_STATISTICS_TAGS : BPS DURATION NUMBER_OF_FRAMES NUMBER_OF_BYTES

Video
ID : 1
Format : AVC
Format/Info : Advanced Video Codec
Format profile : [email protected]
Format settings, CABAC : Yes
Format settings, ReFrames : 5 frames
Codec ID : V_MPEG4/ISO/AVC
Duration : 1h 42mn
Bit rate : 9 130 Kbps
Width : 1 920 pixels
Height : 816 pixels
Display aspect ratio : 2.35:1
Frame rate mode : Constant
Frame rate : 23.976 fps
Color space : YUV
Chroma subsampling : 4:2:0
Bit depth : 8 bits
Scan type : Progressive
Bits/(Pixel*Frame) : 0.243
Stream size : 6.41 GiB (82%)
Writing library : core 144 r2525 40bb568
Encoding settings : cabac=1 / ref=5 / deblock=1:-3:-3 / analyse=0x3:0x113 / me=umh / subme=8 / psy=1 / psy_rd=1.00:0.00 / mixed_ref=1 / me_range=16 / chroma_me=1 / trellis=1 / 8x8dct=1 / cqm=0 / deadzone=21,11 / fast_pskip=1 / chroma_qp_offset=-2 / threads=6 / lookahead_threads=1 / sliced_threads=0 / nr=0 / decimate=1 / interlaced=0 / bluray_compat=0 / constrained_intra=0 / bframes=3 / b_pyramid=2 / b_adapt=2 / b_bias=0 / direct=3 / weightb=1 / open_gop=0 / weightp=2 / keyint=240 / keyint_min=24 / scenecut=40 / intra_refresh=0 / rc_lookahead=50 / rc=2pass / mbtree=1 / bitrate=9130 / ratetol=1.0 / qcomp=0.60 / qpmin=0 / qpmax=69 / qpstep=4 / cplxblur=20.0 / qblur=0.5 / ip_ratio=1.40 / aq=1:1.00
Language : English
Default : Yes
Forced : No
DURATION : 01:42:57.172000000
NUMBER_OF_FRAMES : 148104
NUMBER_OF_BYTES : 7046189691
_STATISTICS_WRITING_APP : mkvmerge v7.6.0 ('Garden of Dreams') 64bit built on Feb 8 2015 13:04:34
_STATISTICS_WRITING_DATE_UT : 2015-03-02 20:06:25
_STATISTICS_TAGS : BPS DURATION NUMBER_OF_FRAMES NUMBER_OF_BYTES

Audio #1
ID : 2
Format : AC-3
Format/Info : Audio Coding 3
Mode extension : CM (complete main)
Format settings, Endianness : Big
Codec ID : A_AC3
Duration : 1h 42mn
Bit rate mode : Constant
Bit rate : 192 Kbps
Channel(s) : 2 channels
Channel positions : Front: L R
Sampling rate : 48.0 KHz
Bit depth : 16 bits
Compression mode : Lossy
Stream size : 141 MiB (2%)
Language : Ukrainian
Default : No
Forced : No

Audio #2
ID : 3
Format :
Format/Info : Digital Theater Systems
Mode : 16
Format settings, Endianness : Big
Codec ID : A_DTS
Duration : 1h 42mn
Bit rate mode : Constant
Bit rate : 1 509 Kbps
Channel(s) : 6 channels
Channel positions : Front: L C R, Side: L R, LFE
Sampling rate : 48.0 KHz
Bit depth : 24 bits
Compression mode : Lossy
Stream size : 1.09 GiB (14%)
Language : English
Default : No
Forced : No

Text #1
ID : 4
Format : UTF-8
Codec ID : S_TEXT/UTF8
Codec ID/Info : UTF-8 Plain Text
Title : SDH
Language : English
Default : No
Forced : No

Text #2
ID : 5
Format : UTF-8
Codec ID : S_TEXT/UTF8
Codec ID/Info : UTF-8 Plain Text
Language : English
Default : No
Forced : No

Menu
00:00:00.000 : en:00:00:00.000
00:09:48.213 : en:00:09:48.213
00:19:16.572 : en:00:19:16.572
00:27:58.468 : en:00:27:58.468
00:36:20.178 : en:00:36:20.178
00:45:14.545 : en:00:45:14.545
00:56:09.032 : en:00:56:09.032
01:03:27.262 : en:01:03:27.262
01:11:01.007 : en:01:11:01.007
01:20:34.329 : en:01:20:34.329
01:31:12.342 : en:01:31:12.342
01:38:35.535 : en:01:38:35.535


Джерело:


 Трекер:    Зареєстрований   

Завантажити / скачати фільм українською



відео для новачків



 Зареєстрований:   2015-03-02 22:22
 Розмір:   7.79 GB 
 Оцінка фільму:   7.5/10 (Голосів: 12)
   
Інші релізи
   З любов'ю, Розі / Love, Rosie (2014) AVC AngryBirdsUA  4 / 0   1.45 GB   2015-03-02 22:01 
   З любов'ю, Розі / Love, Rosie (2014) patriot2305  7 / 0   1.45 GB   2015-03-02 21:53 
   З любов'ю, Розі / Love, Rosie (2014) 720p Ukr/Eng | Sub Eng 11FrYkT  4 / 0   3.74 GB   2015-03-02 21:51 
yurkor 
Новенький


З нами з: 03.03.10
Востаннє: 04.12.16
Повідомлень: 3

2015-03-03 00:23  
Дуже круте кіно!Рекомендую.
Zovmoto 
Новенький


З нами з: 18.12.12
Востаннє: 05.12.16
Повідомлень: 15

2016-05-13 23:08  
Хороший життєвий фільм!
Ваш часовий пояс: GMT + 2 Години

Нова тема   Відповісти