Завантажити та скачати торренти українською


Затура / Zathura: A Space Adventure (2005) 720p Ukr/Eng | Sub Ukr/Eng

Нові коментарі

Нова тема   Відповісти
Автор Повідомлення
Anonymous 







2015-03-01 15:12  
Затура / Zathura: A Space Adventure (2005) 720p Ukr/Eng | Sub Ukr/Eng



Оригінальний постер



Жанр: фантастика, фентезі, екшн, пригодницький, комедія, сімейний
Країна: США



Кінокомпанія: Columbia Pictures Corporation, Radar Pictures, Teitler Film, Michael De Luca Productions
Режисер: Джон Фавро / Jon Favreau
Актори: Йон Бобо / Jonah Bobo, Джош Хатчерсон / Josh Hutcherson, Декс Шепард / Dax Shepard, Крістен Стюарт / Kristen Stewart, Тім Робінс / Tim Robbins, Френк Оз / Frank Oz, Джон Олександр / John Alexander, Дерек Мірс / Derek Mears, Дуглас Тейт / Douglas Tait, Джо Букара III / Joe Bucaro III, Джефф Вульф / Jeff Wolfe та інші

Сюжет:
Брати Волтер і Денні знаходять у підвалі свого старого будинку загадкову гру під назвою «Затура» і в результаті опиняються в космосі.

Під час їх фантастичної подорожі вони зустрічаються з астронавтом, потрапляють під метеоритний дощ, протистоять ворожим інопланетянам, схожим на ящірок, стикаються з некерованим роботом і міжгалактичним космічним кораблем. Але найбільша небезпека чекає на них попереду. Якщо вони не встигнуть вчасно закінчити гру і дістатися до планети Затура, то навіки залишаться у відкритому космосі ...


Рейтинг MPAA: PG - рекомендується присутність батьків
Вікова категорія: 6+

Тривалість: 01:41:20
Якість: 720p
Відео:
кодек:
розмір кадру: 1280x692
бітрейт: 6000 кбіт/с

Аудіо # 1:
мова: українська
переклад: багатоголосий закадровий (псевдо дубляж) - студія "Мова"
ролі озвучили: Михайло Кришталь, ще один чоловічий і один чи два жіночих голоси
кодек: 5.1
бітрейт: 384 кбіт/с

Аудіо # 2:
мова: англійська
переклад: оригінал
кодек: 5.1
бітрейт: 1509 кбіт/с

Аудіо # 3:
мова: англійська
переклад: коментарі
кодек: 2.0
бітрейт: 192 кбіт/с

Субтитри # 1:
мова: українська
тип: програмні (м'які)
формат: *.srt
переклад: (з російської) urij546724

Субтитри # 2-3:
мова: англійська (повні, на коментарі)
тип: програмні (м'які)
формат: *.srt

Збережено оригінальні розділи, як на Blu-ray.
MediaInfo
Код:
General
Unique ID                   : 188251122985549389766627579297400637612 (0x8D9FD8F49896179BBB1EAF69554C48AC)
Complete name               : Zathura A Space Adventure (2005) [Ukr,Eng sub.Ukr,Eng] 720p [Hurtom & HDClub].mkv
Format                      : Matroska
Format version              : Version 4 / Version 2
File size                   : 5.72 GiB
Duration                    : 1h 41mn
Overall bit rate            : 8 084 Kbps
Movie name                  : Затура / Zathura: A Space Adventure (2005) [Ukr,Eng sub.Ukr,Eng] 720p [Hurtom & HDClub]
Encoded date                : UTC 2015-03-01 12:19:37
Writing application         : mkvmerge v7.7.0 ('Six Voices') 64bit built on Feb 28 2015 23:39:33
Writing library             : libebml v1.3.1 + libmatroska v1.4.2
DURATION                    : 01:33:45.082000000
NUMBER_OF_FRAMES            : 956
NUMBER_OF_BYTES             : 29768
_STATISTICS_WRITING_APP     : mkvmerge v7.7.0 ('Six Voices') 64bit built on Feb 28 2015 23:39:33
_STATISTICS_WRITING_DATE_UT : 2015-03-01 12:19:37
_STATISTICS_TAGS            : BPS DURATION NUMBER_OF_FRAMES NUMBER_OF_BYTES

Video
ID                          : 1
Format                      : AVC
Format/Info                 : Advanced Video Codec
Format profile              : [email protected]
Format settings, CABAC      : Yes
Format settings, ReFrames   : 9 frames
Codec ID                    : V_MPEG4/ISO/AVC
Duration                    : 1h 41mn
Bit rate                    : 6 000 Kbps
Width                       : 1 280 pixels
Height                      : 692 pixels
Display aspect ratio        : 1.85:1
Frame rate mode             : Constant
Frame rate                  : 23.976 fps
Color space                 : YUV
Chroma subsampling          : 4:2:0
Bit depth                   : 8 bits
Scan type                   : Progressive
Bits/(Pixel*Frame)          : 0.283
Stream size                 : 4.13 GiB (72%)
Title                       : Затура / Zathura: A Space Adventure / Затура: Космическое приключение (2005) 720p [V90]
Writing library             : core 115 r1995 c1e60b9
Encoding settings           : cabac=1 / ref=9 / deblock=1:-3:-3 / analyse=0x3:0x133 / me=umh / subme=10 / psy=1 / psy_rd=1.10:0.00 / mixed_ref=1 / me_range=32 / chroma_me=1 / trellis=2 / 8x8dct=1 / cqm=0 / deadzone=21,11 / fast_pskip=0 / chroma_qp_offset=-2 / threads=6 / sliced_threads=0 / nr=0 / decimate=1 / interlaced=0 / bluray_compat=0 / constrained_intra=0 / bframes=6 / b_pyramid=2 / b_adapt=2 / b_bias=0 / direct=1 / weightb=1 / open_gop=0 / weightp=2 / keyint=250 / keyint_min=23 / scenecut=40 / intra_refresh=0 / rc_lookahead=40 / rc=2pass / mbtree=1 / bitrate=6000 / ratetol=1.0 / qcomp=0.60 / qpmin=0 / qpmax=51 / qpstep=4 / cplxblur=20.0 / qblur=0.5 / vbv_maxrate=50000 / vbv_bufsize=50000 / nal_hrd=none / ip_ratio=1.40 / aq=1:0.80
Language                    : English
Default                     : Yes
Forced                      : No
DURATION                    : 01:41:20.074000000
NUMBER_OF_FRAMES            : 145776
NUMBER_OF_BYTES             : 4556698225
_STATISTICS_WRITING_APP     : mkvmerge v7.7.0 ('Six Voices') 64bit built on Feb 28 2015 23:39:33
_STATISTICS_WRITING_DATE_UT : 2015-03-01 12:19:37
_STATISTICS_TAGS            : BPS DURATION NUMBER_OF_FRAMES NUMBER_OF_BYTES

Audio #1
ID                          : 2
Format                      : AC-3
Format/Info                 : Audio Coding 3
Mode extension              : CM (complete main)
Format settings, Endianness : Big
Codec ID                    : A_AC3
Duration                    : 1h 41mn
Bit rate mode               : Constant
Bit rate                    : 384 Kbps
Channel(s)                  : 6 channels
Channel positions           : Front: L C R, Side: L R, LFE
Sampling rate               : 48.0 KHz
Bit depth                   : 16 bits
Compression mode            : Lossy
Stream size                 : 278 MiB (5%)
Title                       : MVO [Mova-Ukraina] 5.1 384 kbps [Hurtom-urij546724]
Language                    : Ukrainian
Default                     : Yes
Forced                      : No

Audio #2
ID                          : 3
Format                      :
Format/Info                 : Digital Theater Systems
Mode                        : 16
Format settings, Endianness : Big
Codec ID                    : A_DTS
Duration                    : 1h 41mn
Bit rate mode               : Constant
Bit rate                    : 1 509 Kbps
Channel(s)                  : 6 channels
Channel positions           : Front: L C R, Side: L R, LFE
Sampling rate               : 48.0 KHz
Bit depth                   : 24 bits
Compression mode            : Lossy
Stream size                 : 1.07 GiB (19%)
Title                       : Original 5.1 1509 kbps
Language                    : English
Default                     : No
Forced                      : No

Audio #3
ID                          : 4
Format                      : AC-3
Format/Info                 : Audio Coding 3
Format profile              : Dolby Digital
Mode extension              : CM (complete main)
Format settings, Endianness : Big
Codec ID                    : A_AC3
Duration                    : 1h 41mn
Bit rate mode               : Constant
Bit rate                    : 192 Kbps
Channel(s)                  : 2 channels
Channel positions           : Front: L R
Sampling rate               : 48.0 KHz
Bit depth                   : 16 bits
Compression mode            : Lossy
Stream size                 : 139 MiB (2%)
Title                       : Commentary, 2.0 192 kbps
Language                    : English
Default                     : No
Forced                      : No

Text #1
ID                          : 5
Format                      : UTF-8
Codec ID                    : S_TEXT/UTF8
Codec ID/Info               : UTF-8 Plain Text
Title                       : [Hurtom-urij546724]
Language                    : Ukrainian
Default                     : No
Forced                      : No

Text #2
ID                          : 6
Format                      : UTF-8
Codec ID                    : S_TEXT/UTF8
Codec ID/Info               : UTF-8 Plain Text
Title                       : Full
Language                    : English
Default                     : No
Forced                      : No

Text #3
ID                          : 7
Format                      : UTF-8
Codec ID                    : S_TEXT/UTF8
Codec ID/Info               : UTF-8 Plain Text
Title                       : Commentary
Language                    : English
Default                     : No
Forced                      : No

Menu
00:00:00.000                : en:00:00:00.000
00:06:10.328                : en:00:06:10.328
00:13:49.370                : en:00:13:49.370
00:17:14.575                : en:00:17:14.575
00:23:54.183                : en:00:23:54.183
00:27:48.458                : en:00:27:48.458
00:36:40.073                : en:00:36:40.073
00:39:49.345                : en:00:39:49.345
00:44:39.594                : en:00:44:39.594
00:55:28.408                : en:00:55:28.408
01:01:04.369                : en:01:01:04.369
01:05:50.196                : en:01:05:50.196
01:18:18.819                : en:01:18:18.819
01:22:22.187                : en:01:22:22.187
01:26:20.175                : en:01:26:20.175
01:32:29.294                : en:01:32:29.294




Джерела та подяки: &
ріп відео, оригінальні звук та субтитри - V90, madoff (HDClub); українська доріжка - urij546724 - зведення, Merdiff - запис з ТБ; українські субтитри - urij546724, українізований постер - Пан_Олександр; фільмографії акторів та інформація про озвучення - Віктор (всі - Гуртом).


ЗАЛИШАЙТЕСЬ ЯКОМОГА ДОВШЕ НА РОЗДАЧІ!

СКАЧАВ САМ - ДАЙ СКАЧАТИ ІНШИМ


 Трекер:    Зареєстрований   

Завантажити / скачати фільм українською



відео для новачків



 Зареєстрований:   2015-03-01 15:12
 Розмір:   5.72 GB 
 Оцінка фільму:   3.5/10 (Голосів: 14)
   
Інші релізи
omm 
Відео Гуртом - фільмокрай
Відео Гуртом - фільмокрай


З нами з: 12.06.12
Востаннє: 03.12.16
Повідомлень: 2066

2015-03-01 16:08  
Наступного тижня на Новому каналі
Anonymous 







2015-03-01 16:09  
omm
karvai0 написано:
додано: 2014-04-16 12:14 наст тижня по новому

Ваш часовий пояс: GMT + 2 Години

Нова тема   Відповісти