Завантажити та скачати торренти українською


Хороший рік / Гарний рік / A Good Year (2006) 720p Ukr/Eng | Sub Ukr/Eng

Нові коментарі

Нова тема   Відповісти
Автор Повідомлення
XXXVIRUS 
Частий відвідувач


З нами з: 15.06.10
Востаннє: 02.12.16
Повідомлень: 33

2015-02-23 15:31  
Хороший рік / Гарний рік / A Good Year (2006) 720p Ukr/Eng | Sub Ukr/Eng

Хороший рік / Гарний рік / A Good Year (2006) 720p Ukr/Eng | Sub Ukr/Eng


Жанр: комедія, драма, романтичний
Країна: США, Великобританія



Кінокомпанія: Fox 2000 Pictures, Scott Free Productions
Режисер: Рідлі Скотт / Ridley Scott
Актори: Рассел Кроу / Russell Crowe, Маріон Котіяр / Marion Cotillard, Альберт Фінні / Albert Finney, Фредді Гаймор / Freddie Highmore, Том Голландер / Tom Hollander, Рейф Сполл / Rafe Spall, Арчі Панджабі / Archie Panjabi, Річард Койл / Richard Coyle, Бен Райтон / Ben Righton, Патрік Кеннеді / Patrick Kennedy

Сюжет:
Ділок Лондонської фондової біржі, шалено розумний, кмітливий менеджер і за сумісництвом великий зануда успадковує виноробню в Провансі. Після прибуття до Франції він виявляє, що, окрім нього, є ще люди, що претендують на його законну власність. Ланцюжок неймовірних подій і відкриттів примусять його по-новому поглянути на дійсні цінності цього світу.


Тривалість: 01:57:31
Якість: 720p (WiKi)
Відео:
кодек:
розмір кадру: 1280 x 544
бітрейт: 6000 кб/с

Аудіо # 1:
мова: українська
переклад: двоголосий закадровий
кодек: 2.0
бітрейт: 192 кб/с

Аудіо # 2:
мова: англійська
переклад: оригінал
кодек: 5.1
бітрейт: 640 кб/с

Субтитри (Full):
мова: українська
тип: програмні (м'які)
формат: *.srt

Субтитри (Full, SDH):
мова: англійська
тип: програмні (м'які)
формат: *.srt
MediaInfo
General
Unique ID : 174064677338234335891914842157622855034 (0x82F3A32EE9A5CAF189FF22C90D15857A)
Complete name : E:\Фільми\720p\A.Good.Year.2006.720p.BluRay.-WiKi.Ukr.Eng.mkv
Format : Matroska
Format version : Version 2
File size : 5.61 GiB
Duration : 1h 57mn
Overall bit rate : 6 833 Kbps
Movie name : XXXVIRUS
Encoded date : UTC 2015-02-23 08:30:49
Writing application : mkvmerge v3.4.0 ('Rapunzel') сборка от May 18 2010 22:32:11
Writing library : libebml v0.8.0 + libmatroska v0.9.0

Video
ID : 1
Format : AVC
Format/Info : Advanced Video Codec
Format profile : [email protected]
Format settings, CABAC : Yes
Format settings, ReFrames : 12 frames
Codec ID : V_MPEG4/ISO/AVC
Duration : 1h 57mn
Bit rate : 6 000 Kbps
Width : 1 280 pixels
Height : 544 pixels
Display aspect ratio : 2.35:1
Frame rate mode : Constant
Frame rate : 23.976 fps
Color space : YUV
Chroma subsampling : 4:2:0
Bit depth : 8 bits
Scan type : Progressive
Bits/(Pixel*Frame) : 0.359
Stream size : 4.81 GiB (86%)
Title : WiKi
Writing library : core 130 r2273 b3065e6
Encoding settings : cabac=1 / ref=12 / deblock=1:-3:-3 / analyse=0x3:0x113 / me=umh / subme=11 / psy=1 / psy_rd=0.95:0.05 / mixed_ref=1 / me_range=32 / chroma_me=1 / trellis=2 / 8x8dct=1 / cqm=0 / deadzone=21,11 / fast_pskip=0 / chroma_qp_offset=-5 / threads=12 / lookahead_threads=2 / sliced_threads=0 / nr=0 / decimate=0 / interlaced=0 / bluray_compat=0 / constrained_intra=0 / bframes=8 / b_pyramid=2 / b_adapt=2 / b_bias=0 / direct=3 / weightb=1 / open_gop=0 / weightp=2 / keyint=250 / keyint_min=23 / scenecut=40 / intra_refresh=0 / rc_lookahead=80 / rc=2pass / mbtree=1 / bitrate=6000 / ratetol=1.0 / qcomp=0.60 / qpmin=0 / qpmax=69 / qpstep=4 / cplxblur=20.0 / qblur=0.5 / ip_ratio=1.40 / aq=1:0.90
Language : English
Default : Yes
Forced : Yes

Audio #1
ID : 2
Format : AC-3
Format/Info : Audio Coding 3
Mode extension : CM (complete main)
Format settings, Endianness : Big
Codec ID : A_AC3
Duration : 1h 57mn
Bit rate mode : Constant
Bit rate : 192 Kbps
Channel(s) : 2 channels
Channel positions : Front: L R
Sampling rate : 48.0 KHz
Bit depth : 16 bits
Compression mode : Lossy
Stream size : 161 MiB (3%)
Title : 2.0 @ 192 kb/s [TET]
Language : Ukrainian
Default : Yes
Forced : Yes

Audio #2
ID : 3
Format : AC-3
Format/Info : Audio Coding 3
Mode extension : CM (complete main)
Format settings, Endianness : Big
Codec ID : A_AC3
Duration : 1h 57mn
Bit rate mode : Constant
Bit rate : 640 Kbps
Channel(s) : 6 channels
Channel positions : Front: L C R, Side: L R, LFE
Sampling rate : 48.0 KHz
Bit depth : 16 bits
Compression mode : Lossy
Stream size : 538 MiB (9%)
Title : 5.1 @ 640 kb/s
Language : English
Default : No
Forced : No

Text #1
ID : 4
Format : UTF-8
Codec ID : S_TEXT/UTF8
Codec ID/Info : UTF-8 Plain Text
Title : Full
Language : Ukrainian
Default : No
Forced : No

Text #2
ID : 5
Format : UTF-8
Codec ID : S_TEXT/UTF8
Codec ID/Info : UTF-8 Plain Text
Title : Full
Language : English
Default : No
Forced : No

Text #3
ID : 6
Format : UTF-8
Codec ID : S_TEXT/UTF8
Codec ID/Info : UTF-8 Plain Text
Title : SDH
Language : English
Default : No
Forced : No
Скріншоти




Особиста оцінка: 8 - мені сподобалося

Висловлюю подяку п. MAKAPOHHIK за наданий сирих звук і п. pan_oleg за українізований постер.


 Трекер:    Зареєстрований   

Завантажити / скачати фільм українською



відео для новачків



 Зареєстрований:   2015-02-23 15:31
 Розмір:   5.61 GB 
 Оцінка фільму:   9.6/10 (Голосів: 11)
   
Інші релізи
Ваш часовий пояс: GMT + 2 Години

Нова тема   Відповісти