Завантажити та скачати торренти українською


Вулкан пристрастей / Eyjafjallajokull (2013) 1080p Ukr/Fre | Sub Eng

Нові коментарі

Нова тема   Відповісти
Автор Повідомлення
Anonymous 







2015-02-22 17:35  
Вулкан пристрастей / Eyjafjallajokull (2013) 1080p Ukr/Fre | Sub Eng

Вулкан пристрастей / Eyjafjallajokull (2013) 1080p Ukr/Fre | Sub Eng


Жанр: комедія
Країна: Франція, Бельгія



Кінокомпанія: Quad Productions, TF1 Films Production, Scope Pictures
Режисер: Александр Кофре
Актори: Валері Бонетон, Дені Бун, Дені Меноше, Альберт Дельпі, Беранжера МакНіс, Малік Бенталга, Констанс Долле, Міріам Азенкот, Арно Анріет, Ян Сортон

Сюжет:
Де б ви не хотіли зустрітися зі своїм колишнім? Тільки не в сусідньому кріслі літака, щоб пережити разом довгий переліт. І вже точно не в одній машині, щоб всупереч ісландському вулкану з невимовною назвою, перетнути всю Європу. Коли ви пристрасно ненавидите один одного, може трапитися будь-що. І викрадення літака, і аварія, і втеча з поліції і навіть... повернення романтики.


Тривалість: 01:31:53
Якість:
Відео:
кодек:
розмір кадру: 1920 х 804
бітрейт: 11000 кб/с

Аудіо # 1:
мова: українська
переклад: багатоголосий закадровий
кодек: 5.1
бітрейт: 1152 кб/с
Інформація про озвучення
Ролі озвучили: Андрій Альохін, Юлія Перенчук, Ярослав Чорненький, Ірина Грей, Юрій Ребрик, Олександр Єфімов та інші.
Фільм озвучено студією ААА-sound у 2014 році на замовлення компанії Каскад Україна.

Аудіо # 2:
мова: французька
переклад: оригінал
кодек: 5.1
бітрейт: 640 кб/с
MediaInfo
General
Unique ID : 172733250908133680955740475830865620048 (0x81F336CAC541D794BFDE09411F8DEC50)
Complete name : D:\Eyjafjallajokull (2013) 1080p [Ukr.Fre] [Sub Eng] [Hurtom].mkv
Format : Matroska
Format version : Version 4 / Version 2
File size : 8.21 GiB
Duration : 1h 31mn
Overall bit rate : 12.8 Mbps
Encoded date : UTC 2015-02-22 15:21:08
Writing application : mkvmerge v7.6.0 ('Garden of Dreams') 64bit built on Feb 8 2015 13:04:34
Writing library : libebml v1.3.1 + libmatroska v1.4.2
DURATION : 01:31:53.504000000
NUMBER_OF_FRAMES : 516891
NUMBER_OF_BYTES : 793944576
_STATISTICS_WRITING_APP : mkvmerge v7.6.0 ('Garden of Dreams') 64bit built on Feb 8 2015 13:04:34
_STATISTICS_WRITING_DATE_UT : 2015-02-22 15:21:08
_STATISTICS_TAGS : BPS DURATION NUMBER_OF_FRAMES NUMBER_OF_BYTES

Video
ID : 1
Format : AVC
Format/Info : Advanced Video Codec
Format profile : [email protected]
Format settings, CABAC : Yes
Format settings, ReFrames : 5 frames
Codec ID : V_MPEG4/ISO/AVC
Duration : 1h 31mn
Bit rate : 11.0 Mbps
Width : 1 920 pixels
Height : 804 pixels
Display aspect ratio : 2.40:1
Frame rate mode : Constant
Frame rate : 24.000 fps
Color space : YUV
Chroma subsampling : 4:2:0
Bit depth : 8 bits
Scan type : Progressive
Bits/(Pixel*Frame) : 0.297
Stream size : 6.89 GiB (84%)
Writing library : core 136 r2348+704+51 d1baef6 tMod [[email protected] X86_64]
Encoding settings : cabac=1 / ref=5 / deblock=1:-3:-3 / analyse=0x3:0x133 / me=umh / subme=11 / psy=1 / fade_compensate=0.00 / psy_rd=1.05:0.05 / mixed_ref=1 / me_range=64 / chroma_me=1 / trellis=2 / 8x8dct=1 / cqm=0 / deadzone=21,11 / fast_pskip=0 / chroma_qp_offset=-3 / threads=12 / lookahead_threads=2 / sliced_threads=0 / nr=0 / decimate=0 / interlaced=0 / bluray_compat=0 / constrained_intra=0 / fgo=0 / bframes=8 / b_pyramid=2 / b_adapt=2 / b_bias=0 / direct=3 / weightb=1 / open_gop=0 / weightp=2 / keyint=250 / keyint_min=24 / scenecut=40 / intra_refresh=0 / rc_lookahead=120 / rc=2pass / mbtree=0 / bitrate=11000 / ratetol=1.0 / qcomp=0.75 / qpmin=0:0:0 / qpmax=69:69:69 / qpstep=4 / cplxblur=20.0 / qblur=0.5 / vbv_maxrate=50000 / vbv_bufsize=50000 / nal_hrd=none / ip_ratio=1.40 / pb_ratio=1.30 / aq=3:0.90 / aq-sensitivity=10.00 / aq-factor=1.00:1.00:1.00 / aq2=0 / aq3=0
Default : Yes
Forced : No
Matrix coefficients : BT.709
Color range : Limited
DURATION : 01:31:53.459000000
NUMBER_OF_FRAMES : 132323
NUMBER_OF_BYTES : 7575820798
_STATISTICS_WRITING_APP : mkvmerge v7.6.0 ('Garden of Dreams') 64bit built on Feb 8 2015 13:04:34
_STATISTICS_WRITING_DATE_UT : 2015-02-22 15:21:08
_STATISTICS_TAGS : BPS DURATION NUMBER_OF_FRAMES NUMBER_OF_BYTES

Audio #1
ID : 2
Format :
Format/Info : Digital Theater Systems
Mode : 16
Format settings, Endianness : Big
Codec ID : A_DTS
Duration : 1h 31mn
Bit rate mode : Constant
Bit rate : 1 152 Kbps
Channel(s) : 6 channels
Channel positions : Front: L C R, Side: L R, LFE
Sampling rate : 48.0 KHz
Bit depth : 24 bits
Compression mode : Lossy
Stream size : 757 MiB (9%)
Language : Ukrainian
Default : Yes
Forced : No

Audio #2
ID : 3
Format : AC-3
Format/Info : Audio Coding 3
Mode extension : CM (complete main)
Format settings, Endianness : Big
Codec ID : A_AC3
Duration : 1h 31mn
Bit rate mode : Constant
Bit rate : 640 Kbps
Channel(s) : 6 channels
Channel positions : Front: L C R, Side: L R, LFE
Sampling rate : 48.0 KHz
Bit depth : 16 bits
Compression mode : Lossy
Stream size : 421 MiB (5%)
Language : French
Default : No
Forced : No

Text
ID : 4
Format : UTF-8
Codec ID : S_TEXT/UTF8
Codec ID/Info : UTF-8 Plain Text
Language : English
Default : No
Forced : No

Menu
00:00:00.000 : en:00:00:00.000
00:06:30.500 : en:00:06:30.500
00:15:49.917 : en:00:15:49.917
00:22:09.542 : en:00:22:09.542
00:31:07.167 : en:00:31:07.167
00:38:02.500 : en:00:38:02.500
00:44:55.125 : en:00:44:55.125
00:53:15.542 : en:00:53:15.542
01:02:37.542 : en:01:02:37.542
01:07:48.208 : en:01:07:48.208
01:17:01.083 : en:01:17:01.083
01:26:40.708 : en:01:26:40.708


Джерело:
Особиста оцінка: 0 - не дивився


 Трекер:    Зареєстрований   

Завантажити / скачати фільм українською



відео для новачків



 Зареєстрований:   2015-02-22 17:35
 Розмір:   8.21 GB 
 Оцінка фільму:   5.1/10 (Голосів: 8)
   
ninenine 
Відео Гуртом - фільмокрай
Відео Гуртом - фільмокрай


З нами з: 23.10.09
Востаннє: 05.12.16
Повідомлень: 1147

2015-03-02 23:48  
Хороша комедія 7 з 10.
Ваш часовий пояс: GMT + 2 Години

Нова тема   Відповісти