Завантажити та скачати торренти українською


Велич і трагедія стрийських будителів (2013)

Нові коментарі

Нова тема   Відповісти
Автор Повідомлення
маленький хлопчик 
VIP


З нами з: 14.02.15
Востаннє: 19.01.17
Повідомлень: 667

2015-02-20 14:42  
Велич і трагедія стрийських будителів (2013)

Велич і трагедія стрийських будителів (2013)


Жанр: документальний
Країна: Україна

Телеканал / кіностудія: West Art studio
Режисер: Євген Тиченко

Сюжет:
Цей фільм про долі трьох людей, які більш як сто років тому сколихнули всю Східну Галичину, пробудили дух українства у краї, який формально ніколи не був українським — належав до 1772 року Речі Посполитій, потім Австро-Угорській імперії Габсбургів, а з 1939 року — буржуазній Польщі.
Стрийська трійця — Євген Олесницький, Остап Нижанківський, Олекса Бобикевич — зробила, здається, неможливе — слово «українець» у ту складну епоху, завдячуючи їх зусиллям, зазвучало голосно і гордо.
Доля, однак, безжально повелася з нашими героями, завчасно обірвавши їх життя, а історія, давши шанс, згодом намагалася знищити ідею, котру вони плекали.
Ця стрічка проектується на сучасну Україну, в якій, на жаль, так мало українського, зате не бракує наступаючої сірості, примітивного телевізійного дурману, відкритої антисоціальної пропаганди, спрямованих на молоде покоління -- основу майбутнього нашої нації.
Якщо ця моя робота дозволить Тобі, шановний глядачу, хоч на краплину поповнити свій імунітет проти цих глобальних викликів, зберегти у собі дух українця, вважатиму, що працював недарма.


Тривалість: 01:15:43
Якість:
Відео:
кодек:
розмір кадру: 1280 х 720
бітрейт: 1983 кб/с

Аудіо:
мова: українська
переклад: оригінал
кодек: 2.0
бітрейт: 192 кб/с
Скріншоти




MediaInfo
General
Complete name : F:\Велич і трагедія стрийських будителів (2014).mp4
Format : MPEG-4
Format profile : Base Media / Version 2
Codec ID : mp42
File size : 1.15 GiB
Duration : 1h 15mn
Overall bit rate mode : Variable
Overall bit rate : 2 177 Kbps
Encoded date : UTC 2014-04-08 17:30:28
Tagged date : UTC 2014-04-08 17:30:28
gsst : 0
gstd : 4543540
gssd : B4A7DDAA4HH1424431019095570
gshh : r4---sn-4g57kued.googlevideo.com

Video
ID : 1
Format : AVC
Format/Info : Advanced Video Codec
Format profile : [email protected]
Format settings, CABAC : Yes
Format settings, ReFrames : 1 frame
Format settings, GOP : M=1, N=60
Codec ID : avc1
Codec ID/Info : Advanced Video Coding
Duration : 1h 15mn
Bit rate : 1 983 Kbps
Maximum bit rate : 9 693 Kbps
Width : 1 280 pixels
Height : 720 pixels
Display aspect ratio : 16:9
Frame rate mode : Constant
Frame rate : 25.000 fps
Color space : YUV
Chroma subsampling : 4:2:0
Bit depth : 8 bits
Scan type : Progressive
Bits/(Pixel*Frame) : 0.086
Stream size : 1.05 GiB (91%)
Tagged date : UTC 2014-04-08 17:32:54

Audio
ID : 2
Format :
Format/Info : Advanced Audio Codec
Format profile : LC
Codec ID : 40
Duration : 1h 15mn
Bit rate mode : Variable
Bit rate : 192 Kbps
Maximum bit rate : 202 Kbps
Channel(s) : 2 channels
Channel positions : Front: L R
Sampling rate : 44.1 KHz
Compression mode : Lossy
Stream size : 104 MiB (9%)
Title : IsoMedia File Produced by Google, 5-11-2011
Encoded date : UTC 2014-04-08 17:31:56
Tagged date : UTC 2014-04-08 17:32:54
Джерело:
Особиста оцінка: 8 - мені сподобалося


Фріліч (завантажене не впливає на рейтинг)
 Трекер:    Зареєстрований   

Завантажити / скачати фільм українською



відео для новачків



 Зареєстрований:   2015-02-20 14:42
 Розмір:   1.15 GB 
 Оцінка фільму:   9.1/10 (Голосів: 18)
   
маленький хлопчик 
VIP


З нами з: 14.02.15
Востаннє: 19.01.17
Повідомлень: 667

2015-02-20 14:45  
Мій перший реліз, якщо щось не те, в писок не бийте.
Zombie35 
Поважний учасник


З нами з: 25.07.12
Востаннє: 18.01.17
Повідомлень: 151

2015-02-20 16:43  
Я мешкаю в Стрию Rolleyes (2)
Obaskov 
Новенький


З нами з: 16.11.08
Востаннє: 08.01.17
Повідомлень: 4

2015-02-20 17:52  
Хто на роздачі?
маленький хлопчик 
VIP


З нами з: 14.02.15
Востаннє: 19.01.17
Повідомлень: 667

2015-02-20 20:37  
Obaskov вже стаю на роздачу. Деякі проблеми були.
Сонцеслав 
VIP


З нами з: 26.01.11
Востаннє: 09.01.17
Повідомлень: 388

2015-02-21 07:09  
А Галицько-Волинське князівство - це формально український край?
Konfucius 
Управління
Управління


З нами з: 30.09.07
Востаннє: 18.01.17
Повідомлень: 4783

2015-02-22 00:27  
маленький хлопчик написано:
розмір кадру: 1280 х 720

Скріншоти - 800 × 467. Треба виправити.

Якщо реліз і справді в HD-якості, зробіть скріншоти у форматі .png і добавте mediainfo.

маленький хлопчик 
VIP


З нами з: 14.02.15
Востаннє: 19.01.17
Повідомлень: 667

2015-02-24 21:28  
Ліньки міняти. Хочете самі міняйте, хочете - видаляйте реліз.
BIJ 
Новенький


З нами з: 25.08.08
Востаннє: 14.01.17
Повідомлень: 4

2016-05-14 11:10  
Zombie35
На радість, я теж. З чим і Вітаю.

Ваш часовий пояс: GMT + 2 Години

Нова тема   Відповісти