Завантажити та скачати торренти українською


Сутінки: Пенталогія / Twilight: Pentalogy / The Twilight Saga: Pentalogy (2008-2012) 720p Ukr/Eng | Sub Ukr/Eng

Нові коментарі

Нова тема   Відповісти
Автор Повідомлення
Beffis 
Модератор DVD


З нами з: 17.09.09
Востаннє: 06.12.16
Повідомлень: 339

2015-02-20 13:18  
Сутінки: Пенталогія / Twilight: Pentalogy / The Twilight Saga: Pentalogy (2008-2012) 720p Ukr/Eng | Sub Ukr/Eng

Сутінки: Пенталогія / Twilight: Pentalogy / The Twilight Saga: Pentalogy (2008-2012) 720p Ukr/Eng | Sub Ukr/Eng
Сутінки / Twilight (2008) 720p Ukr/Eng | Sub Ukr/Eng

Сутінки / Twilight (2008) 720p Ukr/Eng | Sub Ukr/Eng

Сутінки: Пенталогія / Twilight: Pentalogy / The Twilight Saga: Pentalogy (2008-2012) 720p Ukr/Eng | Sub Ukr/Eng


Жанр: драма, фентезі, романтичний, триллер
Країна: США



Кінокомпанія: Goldcrest Pictures, Imprint Entertainment, Maverick Films, Summit Entertainment, Temple Hill Entertainment, Twilight Productions
Режисер: Катрін Хардвік
Актори: Крістен Стюарт, Роберт Паттінсон, Біллі Бурк, Тейлор Лотнер, Джастін Чон, Майкл Уелш, Анна Кендрік, Крістіан Серратос, Ніккі Рід, Келлан Латс, Ешлі Грін

Сюжет:
Дівчина Белла переїжджає до батька в невелике містечко Форкс. Вона закохується в загадкового однокласника, котрий, як виявилося, походить із родини вампірів, що відмовилися від нападів на людей. Закохатися у вампіра. Це страшно? Це романтично, це прекрасно й болісно, але це не може скінчитися добром, особливо у вічному протистоянні вампірських кланів, де найменша відмінність від навколишніх уже перетворює вас у ворога.


Тривалість: 02:01:50
Якість:
Відео:
кодек:
розмір кадру: 1280x532
бітрейт: 7 715 кб/с

Аудіо # 1:
мова: українська
переклад: багатоголосий закадровий
кодек: 5.1
бітрейт: 384 кб/с

Аудіо # 2:
мова: англійська
переклад: оригінал
кодек: 5.1
бітрейт: 1509 кб/с

Аудіо # 3:
мова: англійська (коментарі)
переклад: оригінал
кодек: OGG
бітрейт: 80 кб/с

Джерело озвучення:


Субтитри:
мова: українська
тип: програмні (м'які)
формат: *.srt

Субтитри:
мова: англійська
тип: програмні (м'які)
формат: *.srt
MediaInfo
General
Unique ID : 225966703447625138358192367240553821840 (0xA9FF9AA3B43AE99994C27E7370B9F690)
Complete name : D:\Twilight Pentalohyya (2008-2012) 720p [HURTOM] by Beffis\Twilight (2008) 720p [HURTOM] by Beffis.mkv
Format : Matroska
Format version : Version 2
File size : 8.24 GiB
Duration : 2h 1mn
Overall bit rate mode : Variable
Overall bit rate : 9 683 Kbps
Movie name : White Noise (2005) - Release for HDCLUB
Encoded date : UTC 2015-02-19 04:27:01
Writing application : mkvmerge v4.0.0 ('The Stars were mine') збірка від Jun 6 2010 16:18:42
Writing library : libebml v1.0.0 + libmatroska v1.0.0

Video
ID : 1
Format : AVC
Format/Info : Advanced Video Codec
Format profile : [email protected]
Format settings, CABAC : Yes
Format settings, ReFrames : 6 frames
Format settings, GOP : N=1
Codec ID : V_MPEG4/ISO/AVC
Duration : 2h 1mn
Bit rate : 7 715 Kbps
Width : 1 280 pixels
Height : 532 pixels
Display aspect ratio : 2.40:1
Frame rate mode : Constant
Frame rate : 23.976 fps
Color space : YUV
Chroma subsampling : 4:2:0
Bit depth : 8 bits
Scan type : Progressive
Bits/(Pixel*Frame) : 0.473
Stream size : 6.40 GiB (78%)
Title : Release for HDCLUB
Writing library : core 66 r1115M 11863ac
Encoding settings : cabac=1 / ref=6 / deblock=1:-3:-3 / analyse=0x3:0x133 / me=umh / subme=9 / psy_rd=1.0:0.0 / mixed_ref=1 / me_range=32 / chroma_me=1 / trellis=0 / 8x8dct=1 / cqm=2 / deadzone=8,8 / chroma_qp_offset=-2 / threads=6 / nr=0 / decimate=1 / mbaff=0 / bframes=16 / b_pyramid=0 / b_adapt=2 / b_bias=0 / direct=1 / wpredb=1 / keyint=250 / keyint_min=25 / scenecut=40(pre) / rc=2pass / bitrate=7715 / ratetol=1.0 / qcomp=0.60 / qpmin=10 / qpmax=51 / qpstep=4 / cplxblur=20.0 / qblur=0.5 / ip_ratio=1.40 / pb_ratio=1.30 / aq=1:0.70
Language : English
Default : Yes
Forced : No

Audio #1
ID : 2
Format : AC-3
Format/Info : Audio Coding 3
Mode extension : CM (complete main)
Format settings, Endianness : Big
Codec ID : A_AC3
Duration : 2h 1mn
Bit rate mode : Constant
Bit rate : 384 Kbps
Channel(s) : 6 channels
Channel positions : Front: L C R, Side: L R, LFE
Sampling rate : 48.0 KHz
Bit depth : 16 bits
Compression mode : Lossy
Stream size : 335 MiB (4%)
Title : 5.1 @ 384 kbps - Многоголосый закадровый
Language : Ukrainian
Default : No
Forced : No

Audio #2
ID : 3
Format :
Format/Info : Digital Theater Systems
Mode : 16
Format settings, Endianness : Big
Codec ID : A_DTS
Duration : 2h 1mn
Bit rate mode : Constant
Bit rate : 1 509 Kbps
Channel(s) : 6 channels
Channel positions : Front: L C R, Side: L R, LFE
Sampling rate : 48.0 KHz
Bit depth : 24 bits
Compression mode : Lossy
Stream size : 1.28 GiB (16%)
Title : 5.1 @ 1536 kbps
Language : English
Default : No
Forced : No

Audio #3
ID : 4
Format : Vorbis
Format settings, Floor : 1
Codec ID : A_VORBIS
Duration : 2h 1mn
Bit rate mode : Variable
Bit rate : 80.0 Kbps
Channel(s) : 2 channels
Sampling rate : 48.0 KHz
Compression mode : Lossy
Stream size : 69.7 MiB (1%)
Title : OGG 2.0 @ 80 kbps - Комментарии
Writing library : libVorbis 1.2 (UTC 2007-06-22)
Language : English
Default : No
Forced : No

Text #1
ID : 5
Format : UTF-8
Codec ID : S_TEXT/UTF8
Codec ID/Info : UTF-8 Plain Text
Language : Ukrainian
Default : No
Forced : No

Text #2
ID : 6
Format : UTF-8
Codec ID : S_TEXT/UTF8
Codec ID/Info : UTF-8 Plain Text
Language : English
Default : No
Forced : No
Скріншоти
Сутінки 2. Сага: Новий місяць / The Twilight Saga: New Moon (2009) 720p Ukr/Eng | Sub Ukr/Eng

Сутінки 2. Сага: Новий місяць / The Twilight Saga: New Moon (2009) 720p Ukr/Eng | Sub Ukr/Eng

Сутінки: Пенталогія / Twilight: Pentalogy / The Twilight Saga: Pentalogy (2008-2012) 720p Ukr/Eng | Sub Ukr/Eng


Жанр: драма, фентезі, жахи, романтичний, триллер
Країна: США



Кінокомпанія: Imprint Entertainment, Summit Entertainment, Sunswept Entertainment, Temple Hill Entertainment
Режисер: Кріс Вайц
Актори: Крістен Стюарт, Роберт Паттінсон, Біллі Бурк, Анна Кендрік, Майкл Уелш

Сюжет:
Закохатися у вампіра — страшно і романтично. Але втратити коханого, що вирішив ціною розриву, врятувати свою дівчину від ролі пішака у вічному протистоянні кланів «нічних мисливців», — це просто нестерпно. Белла Свон болісно переживає зникнення Едварда і безуспішно шукає забуття в дружбі з юнаком-індіанцем Джейкобом Блеком. Вона навіть не підозрює, що її найкращий друг — породження ще одного «народу Темряви». Народу, куди жорстокішого і небезпечнішого, аніж аристократи-вампіри...


Тривалість: 02:10:38
Якість:
Відео:
кодек:
розмір кадру: 1280x534
бітрейт: 7 558 кб/с

Аудіо # 1:
мова: українська
переклад: професійний дубльований
кодек: 5.1
бітрейт: 384 кб/с

Аудіо # 2:
мова: англійська
переклад: оригінал
кодек: 5.1
бітрейт: 1536 кб/с

Аудіо # 3:
мова: англійська (коментарі)
переклад: оригінал
кодек: 2.0
бітрейт: 64 кб/с

Джерело озвучення:


Субтитри:
мова: українська
тип: програмні (м'які)
формат: *.srt

Субтитри:
мова: англійська
тип: програмні (м'які)
формат: *.srt
MediaInfo
General
Unique ID : 202324170911115532376810001212611406760 (0x983637C9CEFC026D814E4B339BB6ABA8)
Complete name : D:\Twilight Pentalohyya (2008-2012) 720p [HURTOM] by Beffis\New Moon (2009) 720p [HURTOM] by Beffis.mkv
Format : Matroska
Format version : Version 2
File size : 6.90 GiB
Duration : 2h 10mn
Overall bit rate : 7 558 Kbps
Movie name : The Twilight Saga: New Moon (2009) - Release for HDCLUB
Encoded date : UTC 2015-02-19 04:36:02
Writing application : mkvmerge v4.0.0 ('The Stars were mine') збірка від Jun 6 2010 16:18:42
Writing library : libebml v1.0.0 + libmatroska v1.0.0

Video
ID : 1
Format : AVC
Format/Info : Advanced Video Codec
Format profile : [email protected]
Format settings, CABAC : Yes
Format settings, ReFrames : 8 frames
Codec ID : V_MPEG4/ISO/AVC
Duration : 2h 10mn
Width : 1 280 pixels
Height : 534 pixels
Display aspect ratio : 2.40:1
Frame rate mode : Constant
Frame rate : 23.976 fps
Color space : YUV
Chroma subsampling : 4:2:0
Bit depth : 8 bits
Scan type : Progressive
Title : Release for HDCLUB
Language : English
Default : No
Forced : No

Audio #1
ID : 2
Format : AC-3
Format/Info : Audio Coding 3
Mode extension : CM (complete main)
Format settings, Endianness : Big
Codec ID : A_AC3
Duration : 2h 10mn
Bit rate mode : Constant
Bit rate : 384 Kbps
Channel(s) : 6 channels
Channel positions : Front: L C R, Side: L R, LFE
Sampling rate : 48.0 KHz
Bit depth : 16 bits
Compression mode : Lossy
Stream size : 359 MiB (5%)
Title : 5.1 @ 384 kbps - Дублированнй
Language : Ukrainian
Default : No
Forced : No

Audio #2
ID : 3
Format :
Format/Info : Digital Theater Systems
Mode : 16
Format settings, Endianness : Big
Codec ID : A_DTS
Duration : 2h 10mn
Bit rate mode : Constant
Bit rate : 1 509 Kbps
Channel(s) : 6 channels
Channel positions : Front: L C R, Side: L R, LFE
Sampling rate : 48.0 KHz
Bit depth : 24 bits
Compression mode : Lossy
Stream size : 1.38 GiB (20%)
Title : 5.1 @ 1536 kbps
Language : English
Default : No
Forced : No

Audio #3
ID : 4
Format :
Format/Info : Advanced Audio Codec
Format profile : HE- / LC
Codec ID : A_AAC
Duration : 2h 10mn
Channel(s) : 2 channels
Channel positions : Front: L R
Sampling rate : 48.0 KHz / 24.0 KHz
Compression mode : Lossy
Title : -HE 2.0 @ 64 Kbps - Комментарии
Language : English
Default : No
Forced : No

Text #1
ID : 5
Format : UTF-8
Codec ID : S_TEXT/UTF8
Codec ID/Info : UTF-8 Plain Text
Language : Ukrainian
Default : No
Forced : No

Text #2
ID : 6
Format : UTF-8
Codec ID : S_TEXT/UTF8
Codec ID/Info : UTF-8 Plain Text
Language : English
Default : No
Forced : No
Скріншоти
Сутінки. Сага. Затемнення / The Twilight Saga: Eclipse (2010) 720p Ukr/Eng | Sub Ukr/Eng

Сутінки. Сага. Затемнення / The Twilight Saga: Eclipse (2010) 720p Ukr/Eng | Sub Ukr/Eng

Сутінки: Пенталогія / Twilight: Pentalogy / The Twilight Saga: Pentalogy (2008-2012) 720p Ukr/Eng | Sub Ukr/Eng


Жанр: Триллер, Фентезі, Жахи, Мелодрама
Країна: США



Кінокомпанія: Imprint Entertainment
Режисер: Девід Слейд
Актори: Крістен Стюарт, Роберт Паттінсон, Тейлор Лотнер, Ксавьєр Семюел, Брайс Даллас Ховард, Анна Кендрік, Майкл Велш, Крістіан Серратос, Джексон Ретбоун, Ешлі Грін

Сюжет:
Сієтл охоплений чергою таємничих вбивств, а охоплена спрагою помсти вампірша продовжує пошуки Белли, яка знову виявилася в смертельній небезпеці. Крім того, знаходячись в епіцентрі всіх подій, Белла вимушена робити вибір між коханням до Едварда і дружбою з Джейкобом, знаючи що її рішення може послужити поштовхом до відновлення давнього протистояння між вампірами і перевертнями. Окрім всього іншого, їй належить прийняти ще одне важливе рішення: життя або смерть, адже закінчення середньої школи вже не за горами.


Тривалість: 02:03:57
Якість:
Відео:
кодек:
розмір кадру: 1280x534
бітрейт: 6 500 кб/с

Аудіо # 1:
мова: українська
переклад: професійний дубльований
кодек: 5.1
бітрейт: 448 кб/с

Аудіо # 2:
мова: англійська
переклад: оригінал
кодек: 5.1
бітрейт: 1509 кб/с

Аудіо # 3:
мова: англійська (коментарі №1)
переклад: оригінал
кодек: 2.0
бітрейт: 64 кб/с

Аудіо # 4:
мова: англійська (коментарі №2)
переклад: оригінал
кодек: 2.0
бітрейт: 64 кб/с

Джерело озвучення:

Субтитри:
мова: українська
тип: програмні (м'які)
формат: *.srt

Субтитри:
мова: англійська
тип: програмні (м'які)
формат: *.srt
MediaInfo
General
Unique ID : 224239950553928596884623426158604771991 (0xA8B30B26174B4B5389CC406A6122E297)
Complete name : D:\Гуртом\Twilight Pentalohyya (2008-2012) 720p [HURTOM] by Beffis\Eclipse (2010) 720p [HURTOM] by Beffis).mkv
Format : Matroska
Format version : Version 2
File size : 7.43 GiB
Duration : 2h 3mn
Overall bit rate : 8 578 Kbps
Movie name : Eclipse (2010) - Release for HDCLUB
Encoded date : UTC 2015-02-19 04:43:08
Writing application : mkvmerge v4.0.0 ('The Stars were mine') збірка від Jun 6 2010 16:18:42
Writing library : libebml v1.0.0 + libmatroska v1.0.0

Video
ID : 1
Format : AVC
Format/Info : Advanced Video Codec
Format profile : [email protected]
Format settings, CABAC : Yes
Format settings, ReFrames : 10 frames
Codec ID : V_MPEG4/ISO/AVC
Duration : 2h 3mn
Nominal bit rate : 6 500 Kbps
Width : 1 280 pixels
Height : 534 pixels
Display aspect ratio : 2.40:1
Frame rate mode : Constant
Frame rate : 23.976 fps
Color space : YUV
Chroma subsampling : 4:2:0
Bit depth : 8 bits
Scan type : Progressive
Bits/(Pixel*Frame) : 0.397
Title : Release for HDCLUB
Writing library : core 107 r1772 c9dad9e
Encoding settings : cabac=1 / ref=10 / deblock=1:-3:-3 / analyse=0x3:0x113 / me=tesa / subme=10 / psy=1 / psy_rd=1.00:0.00 / mixed_ref=1 / me_range=16 / chroma_me=1 / trellis=2 / 8x8dct=1 / cqm=0 / deadzone=21,11 / fast_pskip=0 / chroma_qp_offset=-2 / threads=6 / sliced_threads=0 / nr=0 / decimate=0 / interlaced=0 / constrained_intra=0 / bframes=8 / b_pyramid=2 / b_adapt=2 / b_bias=0 / direct=3 / weightb=1 / open_gop=0 / weightp=2 / keyint=250 / keyint_min=23 / scenecut=40 / intra_refresh=0 / rc=2pass / mbtree=0 / bitrate=6500 / ratetol=1.0 / qcomp=0.60 / qpmin=10 / qpmax=51 / qpstep=4 / cplxblur=20.0 / qblur=0.5 / ip_ratio=1.40 / pb_ratio=1.30 / aq=1:0.80
Language : English
Default : No
Forced : No

Audio #1
ID : 2
Format : AC-3
Format/Info : Audio Coding 3
Mode extension : CM (complete main)
Format settings, Endianness : Big
Codec ID : A_AC3
Duration : 2h 3mn
Bit rate mode : Constant
Bit rate : 448 Kbps
Channel(s) : 6 channels
Channel positions : Front: L C R, Side: L R, LFE
Sampling rate : 48.0 KHz
Bit depth : 16 bits
Compression mode : Lossy
Stream size : 397 MiB (5%)
Title : 5.1ch 448 kbps - Дубляж, Blu-Ray
Language : Ukrainian
Default : No
Forced : No

Audio #2
ID : 3
Format :
Format/Info : Digital Theater Systems
Mode : 16
Format settings, Endianness : Big
Codec ID : A_DTS
Duration : 2h 3mn
Bit rate mode : Constant
Bit rate : 1 509 Kbps
Channel(s) : 6 channels
Channel positions : Front: L C R, Side: L R, LFE
Sampling rate : 48.0 KHz
Bit depth : 24 bits
Compression mode : Lossy
Stream size : 1.31 GiB (18%)
Title : 5.1ch 1510 kbps - Original
Language : English
Default : No
Forced : No

Audio #3
ID : 4
Format :
Format/Info : Advanced Audio Codec
Format profile : HE- / LC
Codec ID : A_AAC
Duration : 2h 3mn
Channel(s) : 2 channels
Channel positions : Front: L R
Sampling rate : 48.0 KHz / 24.0 KHz
Compression mode : Lossy
Title : Commentary 1
Language : English
Default : No
Forced : No

Audio #4
ID : 5
Format :
Format/Info : Advanced Audio Codec
Format profile : HE- / LC
Codec ID : A_AAC
Duration : 2h 3mn
Channel(s) : 2 channels
Channel positions : Front: L R
Sampling rate : 48.0 KHz / 24.0 KHz
Compression mode : Lossy
Title : Commentary 2
Language : English
Default : No
Forced : No

Text #1
ID : 6
Format : UTF-8
Codec ID : S_TEXT/UTF8
Codec ID/Info : UTF-8 Plain Text
Language : Ukrainian
Default : No
Forced : No

Text #2
ID : 7
Format : UTF-8
Codec ID : S_TEXT/UTF8
Codec ID/Info : UTF-8 Plain Text
Language : English
Default : No
Forced : No
Скріншоти
Сутінки. Сага. Світанок - Частина 1 / The Twilight Saga: Breaking Dawn - Part 1 (2011) 720p Ukr/Eng | Sub Ukr/Eng

Сутінки. Сага. Світанок - Частина 1 / The Twilight Saga: Breaking Dawn - Part 1 (2011) 720p Ukr/Eng | Sub Ukr/Eng

Сутінки: Пенталогія / Twilight: Pentalogy / The Twilight Saga: Pentalogy (2008-2012) 720p Ukr/Eng | Sub Ukr/Eng


Жанр: фентезі, драма, романтичний, мелодрама
Країна: США



Кінокомпанія: Summit Entertainment
Режисер: Білл Кондон
Актори: Крістен Стюарт, Роберт Паттінсон, Тейлор Лотнер, Майкл Шин, Ешлі Грін, Келлан Латс, Біллі Берк, Джексон Ретбоун

Сюжет:
У четвертій частині Белла Свон постає перед непростим вибором - зберегти життя собі або своїй дитині (наполовину вампірові, наполовину людині). Вона вирішує залишити малюка, але Едвард та інші члени сім'ї Каллен категорично проти. Допомоги Беллі чекати не від кого, але вона приходить несподівано, від того, від кого її зовсім не чекали. Удвох Белла і Розалі намагаються зберегти життя малюкові, навіть не здогадуючись, до яких страхітливих наслідків це призведе.


Тривалість: 01:57:08
Якість:
Відео:
кодек:
розмір кадру: 1280x534
бітрейт: 6 126 кб/с

Аудіо # 1:
мова: українська
переклад: професійний дубльований
кодек: 5.1
бітрейт: 448 кб/с

Аудіо # 2:
мова: англійська
переклад: оригінал
кодек: 5.1
бітрейт: 1536 кб/с

Аудіо # 3:
мова: англійська (коментарі)
переклад: оригінал
кодек: 2.0
бітрейт: 192 кб/с

Джерело озвучення:


Субтитри:
мова: українська
тип: програмні (м'які)
формат: *.srt

Субтитри:
мова: англійська
тип: програмні (м'які)
формат: *.srt

Субтитри:
мова: англійська (форсовані)
тип: програмні (м'які)
формат: *.srt
MediaInfo
General
Unique ID : 170638055465753673342828274260606689355 (0x805FB1AE65DBA2B7B71DDEB4D347A04B)
Complete name : D:\Гуртом\Twilight Pentalohyya (2008-2012) 720p [HURTOM] by Beffis\The Twilight Saga Breaking Dawn Part 1 (2011) 720p [HURTOM] by Beffis.mkv
Format : Matroska
Format version : Version 2
File size : 6.91 GiB
Duration : 1h 57mn
Overall bit rate : 8 443 Kbps
Movie name : HANSMER
Encoded date : UTC 2015-02-19 04:49:54
Writing application : mkvmerge v4.0.0 ('The Stars were mine') збірка від Jun 6 2010 16:18:42
Writing library : libebml v1.0.0 + libmatroska v1.0.0

Video
ID : 1
Format : AVC
Format/Info : Advanced Video Codec
Format profile : [email protected]
Format settings, CABAC : Yes
Format settings, ReFrames : 12 frames
Codec ID : V_MPEG4/ISO/AVC
Duration : 1h 57mn
Bit rate : 6 126 Kbps
Width : 1 280 pixels
Height : 534 pixels
Display aspect ratio : 2.40:1
Frame rate mode : Constant
Frame rate : 23.976 fps
Color space : YUV
Chroma subsampling : 4:2:0
Bit depth : 8 bits
Scan type : Progressive
Bits/(Pixel*Frame) : 0.374
Stream size : 5.01 GiB (73%)
Title : The.Twilight.Saga.Breaking.Dawn.Part.1.2011.720p.BluRay.-DON
Writing library : core 120 r2120 0c7dab9
Encoding settings : cabac=1 / ref=12 / deblock=1:-3:-3 / analyse=0x3:0x133 / me=umh / subme=10 / psy=1 / psy_rd=0.95:0.05 / mixed_ref=1 / me_range=24 / chroma_me=1 / trellis=2 / 8x8dct=1 / cqm=0 / deadzone=21,11 / fast_pskip=0 / chroma_qp_offset=-3 / threads=12 / sliced_threads=0 / nr=0 / decimate=0 / interlaced=0 / bluray_compat=0 / constrained_intra=0 / bframes=7 / b_pyramid=2 / b_adapt=2 / b_bias=0 / direct=3 / weightb=1 / open_gop=0 / weightp=2 / keyint=250 / keyint_min=23 / scenecut=40 / intra_refresh=0 / rc=crf / mbtree=0 / crf=16.8 / qcomp=0.60 / qpmin=0 / qpmax=69 / qpstep=4 / ip_ratio=1.40 / pb_ratio=1.30 / aq=1:0.95
Language : English
Default : No
Forced : No

Audio #1
ID : 2
Format : AC-3
Format/Info : Audio Coding 3
Mode extension : CM (complete main)
Format settings, Endianness : Big
Codec ID : A_AC3
Duration : 1h 57mn
Bit rate mode : Constant
Bit rate : 448 Kbps
Channel(s) : 6 channels
Channel positions : Front: L C R, Side: L R, LFE
Sampling rate : 48.0 KHz
Bit depth : 16 bits
Compression mode : Lossy
Stream size : 375 MiB (5%)
Title : 5.1 448 Kbps Дубляж, Blu-ray RUS
Language : Ukrainian
Default : No
Forced : No

Audio #2
ID : 3
Format :
Format/Info : Digital Theater Systems
Format profile : ES
Mode : 16
Format settings, Endianness : Big
Codec ID : A_DTS
Duration : 1h 57mn
Bit rate mode : Constant
Bit rate : 1 509 Kbps
Channel(s) : 6 channels
Channel positions : Front: L C R, Side: L R, LFE
Sampling rate : 48.0 KHz
Bit depth : 24 bits
Compression mode : Lossy
Stream size : 1.23 GiB (18%)
Title : 5.1 1536 Kbps
Language : English
Default : No
Forced : No

Audio #3
ID : 4
Format : AC-3
Format/Info : Audio Coding 3
Mode extension : CM (complete main)
Format settings, Endianness : Big
Codec ID : A_AC3
Duration : 1h 57mn
Bit rate mode : Constant
Bit rate : 192 Kbps
Channel(s) : 2 channels
Channel positions : Front: L R
Sampling rate : 48.0 KHz
Bit depth : 16 bits
Compression mode : Lossy
Stream size : 161 MiB (2%)
Title : Commentary
Language : English
Default : No
Forced : No

Text #1
ID : 5
Format : UTF-8
Codec ID : S_TEXT/UTF8
Codec ID/Info : UTF-8 Plain Text
Language : Ukrainian
Default : No
Forced : No

Text #2
ID : 6
Format : UTF-8
Codec ID : S_TEXT/UTF8
Codec ID/Info : UTF-8 Plain Text
Language : English
Default : No
Forced : No

Text #3
ID : 7
Format : UTF-8
Codec ID : S_TEXT/UTF8
Codec ID/Info : UTF-8 Plain Text
Title : Forced
Language : English
Default : No
Forced : No
Скріншоти
Сутінки. Сага. Світанок: Частина 2 / The Twilight Saga: Breaking Dawn - Part 2 (2012) 720p Ukr/Eng | Sub Eng

Сутінки. Сага. Світанок: Частина 2 / The Twilight Saga: Breaking Dawn - Part 2 (2012) 720p Ukr/Eng | Sub Eng

Сутінки: Пенталогія / Twilight: Pentalogy / The Twilight Saga: Pentalogy (2008-2012) 720p Ukr/Eng | Sub Ukr/Eng


Жанр: драма, пригодницький, романтичний, фантастика
Країна: США



Кінокомпанія: Summit Entertainment, Temple Hill Entertainment, Sunswept Entertainment
Режисер: Білл Кондон (Bill Condon)
Актори: Крістен Стюарт (Kristen Stewart), Роберт Паттінсон (Robert Pattinson), Тейлор Лотнер (Taylor Lautner), Пітер Фасінеллі (Peter Facinelli), Елізабет Різер (Elizabeth Reaser), Ешлі Грін (Ashley Greene), Джексон Ретбоун (Jackson Rathbone) та інші.

Сюжет:
Після народження Ренесмі, життя в сім'ї Калленів налагоджується, а Белла, ставши вампіром, поступово звикається зі своєю новою природою. Але спокійне життя закінчується, коли чутки про Ренесмі доходять до Вольтурі. Не знаючи про її незвичайне походження, Вольтурі вважають, що Каллени порушили давній закон. Адже обертати дітей в світі вампірів суворо заборонено. Тепер, зібравши армію, Вольтурі прямують у Форкс, щоб знищити Калленів.


Тривалість: 01:55:11
Якість:
Відео:
кодек:
розмір кадру: 1280x534
бітрейт: 5 560 кб/с

Аудіо # 1:
мова: українська
переклад: професійний дубльований
кодек: 5.1
бітрейт: 448 кб/с

Аудіо # 2:
мова: англійська
переклад: оригінал
кодек: 5.1
бітрейт: 1510 кб/с

Аудіо # 3:
мова: англійська (коментарі №1)
переклад: оригінал
кодек: 2.0
бітрейт: 80 кб/с

Аудіо # 4:
мова: англійська (коментарі №2)
переклад: оригінал
кодек: 2.0
бітрейт: 80 кб/с

Джерело озвучення:


Субтитри:
мова: англійська
тип: програмні (м'які)
формат: *.srt

Субтитри:
мова: англійська (форсовані)
тип: програмні (м'які)
формат: *.srt
MediaInfo
General
Unique ID : 180409660199070054534486325369086068120 (0x87B9A2FDAF1E582D8B32EB4E33FAC598)
Complete name : D:\Гуртом\Twilight Pentalohyya (2008-2012) 720p [HURTOM] by Beffis\The Twilight Saga Breaking Dawn Part 2 (2012) 720p [HURTOM] by Beffis.mkv
Format : Matroska
Format version : Version 2
File size : 6.14 GiB
Duration : 1h 55mn
Overall bit rate : 7 630 Kbps
Movie name : The Twilight Saga Breaking Dawn Part 2 (2012) - Release for HDCLUB
Encoded date : UTC 2015-02-19 04:57:59
Writing application : mkvmerge v4.0.0 ('The Stars were mine') збірка від Jun 6 2010 16:18:42
Writing library : libebml v1.0.0 + libmatroska v1.0.0

Video
ID : 1
Format : AVC
Format/Info : Advanced Video Codec
Format profile : [email protected]
Format settings, CABAC : Yes
Format settings, ReFrames : 11 frames
Codec ID : V_MPEG4/ISO/AVC
Duration : 1h 55mn
Width : 1 280 pixels
Height : 534 pixels
Display aspect ratio : 2.40:1
Frame rate mode : Constant
Frame rate : 23.976 fps
Color space : YUV
Chroma subsampling : 4:2:0
Bit depth : 8 bits
Scan type : Progressive
Title : Release for HDCLUB
Writing library : core 129 r2245 bc13772
Encoding settings : cabac=1 / ref=11 / deblock=1:-3:-3 / analyse=0x3:0x133 / me=umh / subme=10 / psy=1 / psy_rd=1.05:0.00 / mixed_ref=1 / me_range=32 / chroma_me=1 / trellis=2 / 8x8dct=1 / cqm=0 / deadzone=21,11 / fast_pskip=0 / chroma_qp_offset=-2 / threads=12 / lookahead_threads=2 / sliced_threads=0 / nr=0 / decimate=0 / interlaced=0 / bluray_compat=0 / constrained_intra=0 / bframes=9 / b_pyramid=2 / b_adapt=2 / b_bias=0 / direct=3 / weightb=1 / open_gop=0 / weightp=2 / keyint=240 / keyint_min=23 / scenecut=40 / intra_refresh=0 / rc_lookahead=60 / rc=crf / mbtree=0 / crf=16.5 / qcomp=0.70 / qpmin=0 / qpmax=69 / qpstep=4 / vbv_maxrate=50000 / vbv_bufsize=62500 / crf_max=0.0 / nal_hrd=none / ip_ratio=1.30 / pb_ratio=1.20 / aq=1:0.60
Language : English
Default : No
Forced : No

Audio #1
ID : 2
Format : AC-3
Format/Info : Audio Coding 3
Mode extension : CM (complete main)
Format settings, Endianness : Big
Codec ID : A_AC3
Duration : 1h 55mn
Bit rate mode : Constant
Bit rate : 448 Kbps
Channel(s) : 6 channels
Channel positions : Front: L C R, Side: L R, LFE
Sampling rate : 48.0 KHz
Bit depth : 16 bits
Compression mode : Lossy
Stream size : 369 MiB (6%)
Title : 5.1 @ 448 kbps - DUB, Blu-ray
Language : Ukrainian
Default : No
Forced : No

Audio #2
ID : 3
Format :
Format/Info : Digital Theater Systems
Format profile : ES
Mode : 16
Format settings, Endianness : Big
Codec ID : A_DTS
Duration : 1h 55mn
Bit rate mode : Constant
Bit rate : 1 510 Kbps
Channel(s) : 7 channels / 6 channels
Channel positions : Front: L C R, Side: L R, Back: C, LFE / Front: L C R, Side: L R, LFE
Sampling rate : 48.0 KHz
Bit depth : 24 bits
Compression mode : Lossy
Delay relative to video : 11ms
Stream size : 1.21 GiB (20%)
Title : -ES 6.1 @ 1536 kbps
Language : English
Default : No
Forced : No

Audio #3
ID : 4
Format :
Format/Info : Advanced Audio Codec
Format profile : HE- / LC
Codec ID : A_AAC
Duration : 1h 55mn
Channel(s) : 2 channels
Channel positions : Front: L R
Sampling rate : 48.0 KHz / 24.0 KHz
Compression mode : Lossy
Delay relative to video : 31ms
Title : Commentary 1 2.0 @ 75 Kbps (-q=0.3)
Language : English
Default : No
Forced : No

Audio #4
ID : 5
Format :
Format/Info : Advanced Audio Codec
Format profile : HE- / LC
Codec ID : A_AAC
Duration : 1h 55mn
Channel(s) : 2 channels
Channel positions : Front: L R
Sampling rate : 48.0 KHz / 24.0 KHz
Compression mode : Lossy
Delay relative to video : 31ms
Title : Commentary 2 2.0 @ 34 Kbps (-q=0.3)
Language : English
Default : No
Forced : No

Text #1
ID : 6
Format : UTF-8
Codec ID : S_TEXT/UTF8
Codec ID/Info : UTF-8 Plain Text
Title : Forced
Language : English
Default : No
Forced : No

Text #2
ID : 7
Format : UTF-8
Codec ID : S_TEXT/UTF8
Codec ID/Info : UTF-8 Plain Text
Language : English
Default : No
Forced : No
Скріншоти
Джерело озвучення:


Джерело: &

Особиста оцінка: 10 - без зайвих вагань рекомендую всім!


Бронзовий реліз (на рейтинг впливає 75% завантаженого)
 Трекер:    Зареєстрований   

Завантажити / скачати фільм українською



відео для новачків



 Зареєстрований:   2015-02-20 13:18
 Розмір:   35.61 GB 
 Оцінка фільму:   9.7/10 (Голосів: 15)
   
Devenber 
Новенький


З нами з: 28.12.14
Востаннє: 29.11.16
Повідомлень: 1

2015-03-30 20:43  
Проблема з файлом у 4 частині. Не відкривається. Помилка зчитування медіа-info. Перевірте, будь ласка.
igor911 
Відео Гуртом
Відео Гуртом


З нами з: 18.01.08
Востаннє: 06.12.16
Повідомлень: 5148

2015-03-30 21:04  
Devenber, 13 чоловік скачало реліз і ніхто не відписався про проблему, тому почни перевіряти в себе. Перерахуй хеш у мюторренті, перевір вінт на беди.

Додано через 5 хвилин 44 секунди:

також можлива ситуація, коли довжина загального шляху зі всіма вкладеними папками наближається до 256 символів.

Додано через 2 хвилини 45 секунд:

в останньому випадку, 5та частина теж не відкриється.

boroznaya 
VIP


З нами з: 02.11.12
Востаннє: 06.12.16
Повідомлень: 1873

2015-07-13 20:33  
Я точно пам'ятаю, що після театральної прем'єри завантажувала першу частину з професійним українським дубляжем (Чи то псевдо), але потім втратила реліз, от і не пам'ятаю, звідки брала, а тут багатоголоска. Не підкажете, що трапилось з дубляжем?
Beffis 
Модератор DVD


З нами з: 17.09.09
Востаннє: 06.12.16
Повідомлень: 339

2015-07-27 10:26  
Це і є професійний багатоголосий закадровий переклад, інший наразі не зустрічав.
boroznaya 
VIP


З нами з: 02.11.12
Востаннє: 06.12.16
Повідомлень: 1873

2015-08-19 13:10  
Beffis написано:
інший наразі не зустрічав

А в кінотеатрі також була багатоголоска?

igor911 
Відео Гуртом
Відео Гуртом


З нами з: 18.01.08
Востаннє: 06.12.16
Повідомлень: 5148

2015-08-19 15:10  
boroznaya,
kino-pereklad.org.ua написано:
У ПРОКАТІ: 20 фільмокопій, усі з багатоголосим перекладом українською мовою.

boroznaya 
VIP


З нами з: 02.11.12
Востаннє: 06.12.16
Повідомлень: 1873

2015-08-21 14:38  
Шкода звісно, що немає дубляжу, адже всі наступні частини дубльовані... Спасибі за допомогу!
moshch 
Новенький


З нами з: 29.04.15
Востаннє: 05.12.16
Повідомлень: 3

2016-01-10 12:20  
чому нема українських субтитрів "Сутінки. Сага. Світанок: Частина 2"?
додай їх до фільму, дякую

igor911 
Відео Гуртом
Відео Гуртом


З нами з: 18.01.08
Востаннє: 06.12.16
Повідомлень: 5148

2016-01-10 12:25  
moshch, де ти знайшов укр.саби? Кинь їх мені у приват.
Ваш часовий пояс: GMT + 2 Години

Нова тема   Відповісти