Завантажити та скачати торренти українською


На межі майбутнього / Edge Of Tomorrow (2014) 1080p (h265) Ukr/Eng | Sub Ukr/Eng

Нові коментарі

Нова тема   Відповісти
Автор Повідомлення
Leonb28 
Новенький


З нами з: 28.12.14
Востаннє: 04.12.16
Повідомлень: 9

2015-02-18 19:25  
На межі майбутнього / Edge Of Tomorrow (2014) 1080p (h265) Ukr/Eng | Sub Ukr/Eng

На межі майбутнього / Edge Of Tomorrow (2014) 1080p (h265) Ukr/Eng | Sub Ukr/Eng


Жанр: екшн, фантастика
Країна: США, Австралія



Кінокомпанія: Warner Bros., Village Roadshow Pictures, 3 Arts Entertainment
Режисер: Даґ Лайман
Актори: Том Круз, Емілі Блант, Брендан Ґлісон, Білл Пекстон, Джонас Армстронґ, Тоні Вей, Кік Ґаррі, Франц Драмех, Драґомир Мрсіч, Шарлотта Райлі

Сюжет:
В недалекому майбутньому раса інопланетян вторгається на Землю. Ніяка армія в світі не може протистояти їм. Майор Вільям Кейдж вмирає в бою, але трапляється неможливе - він виявляється в тимчасовій петлі. Раз за разом він потрапляє в один і той же бій, бореться і вмирає... знову і знову. І кожний повторюваний бій наближає його до розгадки того, як перемогти ворога.


Тривалість: 01:53:27
Якість:
Відео:
кодек: MPEG-H/HEVC/H.265
розмір кадру: 1920 x 800
бітрейт: ~6300 кб/с

Аудіо # 1:
мова: українська
переклад: професійний дубльований
кодек: 5.1
бітрейт: 640 кб/с

Аудіо # 2:
мова: англійська
переклад: оригінал
кодек: 5.1
бітрейт: 1510 кб/с

Субтитри(Forced, Full):
мова: українська
тип: програмні (м'які)
формат: *.srt

Субтитри(Full, SDH, SDH-Colored):
мова: англійська
тип: програмні (м'які)
формат: *.srt
MediaInfo


General
Unique ID : 182251485802493554946538592570616248872 (0x891C5C0116A60B9B879F22925506FA28)
Complete name : E:\Edge Of Tomorrow (2014) 1080p h265 ukr.mkv
Format : Matroska
Format version : Version 2
File size : 6.77 GiB
Duration : 1h 53mn
Overall bit rate : 8 539 Kbps
Movie name : Edge Of Tomorrow (2014) - for TNU by Tenax555
Encoded date : UTC 2015-02-18 16:35:32
Writing application : mkvmerge v4.0.0 ('The Stars were mine') сборка от Jun 6 2010 16:18:42
Writing library : libebml v1.0.0 + libmatroska v1.0.0
DURATION : 01:53:11.602000000
NUMBER_OF_FRAMES : 1513
NUMBER_OF_BYTES : 55253
_STATISTICS_WRITING_APP : mkvmerge v7.1.0 ('Good Love') 64bit built on Jul 27 2014 13:06:55
_STATISTICS_WRITING_DATE_UTC : 2014-09-26 21:43:42
_STATISTICS_TAGS : BPS DURATION NUMBER_OF_FRAMES NUMBER_OF_BYTES

Video
ID : 1
Format : HEVC
Format/Info : High Efficiency Video Coding
Codec ID : V_MPEGH/ISO/HEVC
Duration : 1h 53mn
Bit rate : 6 220 Kbps
Width : 1 920 pixels
Height : 800 pixels
Display aspect ratio : 2.40:1
Frame rate mode : Constant
Frame rate : 23.976 fps
Bits/(Pixel*Frame) : 0.169
Stream size : 4.93 GiB (73%)
Title : Edge Of Tomorrow 2014 - Tenax555
Language : English
Default : No
Forced : No

Audio #1
ID : 2
Format : AC-3
Format/Info : Audio Coding 3
Mode extension : CM (complete main)
Format settings, Endianness : Big
Codec ID : A_AC3
Duration : 1h 53mn
Bit rate mode : Constant
Bit rate : 640 Kbps
Channel(s) : 6 channels
Channel positions : Front: L C R, Side: L R, LFE
Sampling rate : 48.0 KHz
Bit depth : 16 bits
Compression mode : Lossy
Stream size : 520 MiB (7%)
Title : 5.1 @ 640 kbps - DUB, Blu-ray CEE
Language : Ukrainian
Default : No
Forced : No

Audio #2
ID : 3
Format :
Format/Info : Digital Theater Systems
Mode : 16
Format settings, Endianness : Big
Codec ID : A_DTS
Duration : 1h 53mn
Bit rate mode : Constant
Bit rate : 1 509 Kbps
Channel(s) : 6 channels
Channel positions : Front: L C R, Side: L R, LFE
Sampling rate : 48.0 KHz
Bit depth : 24 bits
Compression mode : Lossy
Delay relative to video : 11ms
Stream size : 1.20 GiB (18%)
Title : 5.1 @ 1510 kbps
Language : English
Default : No
Forced : No

Text #1
ID : 4
Format : UTF-8
Codec ID : S_TEXT/UTF8
Codec ID/Info : UTF-8 Plain Text
Title : Forced
Language : Ukrainian
Default : No
Forced : Yes

Text #2
ID : 5
Format : UTF-8
Codec ID : S_TEXT/UTF8
Codec ID/Info : UTF-8 Plain Text
Title : Full
Language : Ukrainian
Default : No
Forced : No

Text #3
ID : 6
Format : UTF-8
Codec ID : S_TEXT/UTF8
Codec ID/Info : UTF-8 Plain Text
Language : English
Default : No
Forced : No

Text #4
ID : 7
Format : UTF-8
Codec ID : S_TEXT/UTF8
Codec ID/Info : UTF-8 Plain Text
Title : SDH
Language : English
Default : No
Forced : No

Text #5
ID : 8
Format : UTF-8
Codec ID : S_TEXT/UTF8
Codec ID/Info : UTF-8 Plain Text
Title : SDH-COLORED
Language : English
Default : No
Forced : No

Menu
00:00:00.000 : en:00:00:00.000
00:10:28.169 : en:00:10:28.169
00:17:39.100 : en:00:17:39.100
00:24:50.197 : en:00:24:50.197
00:35:57.947 : en:00:35:57.947
00:46:27.284 : en:00:46:27.284
00:54:34.771 : en:00:54:34.771
01:04:59.562 : en:01:04:59.562
01:12:53.077 : en:01:12:53.077
01:23:08.901 : en:01:23:08.901
01:32:34.132 : en:01:32:34.132
01:42:53.584 : en:01:42:53.584
01:45:46.215 : en:01:45:46.215
УВАГА!
High Efficiency Video Coding HEVC (x265) - представляє нове покоління енкодерів яке створювалося в тому числі для 4К ТБ.
На сучасних "залізних" плеєрах не відтворюється (і не буде)
Аналогічно на телевізорах з вбудованим програвачем медіа
На смартТВ можливо, залежить від моделі ( на універсальних арм процессорах так) необхідне відповідне ПЗ
На PC та HTPC - так, необхідно оновити кодеки та программи відтворення(плеєри) - практично усі сучасні плеєри h265 вже підтримують.
Планшети, смартфони - так (відповідне ПЗ)
Скріншоти






На сучасних "залізних" та на вбудованих у ТВ програвачах не відтворюється!


Джерело: Tenax555
Особиста оцінка: 8 - мені сподобалося

Будь-ласка залишайтесь на роздачі, швидкість обмежена. Дякую за розуміння!


 Трекер:    Зареєстрований   

Завантажити / скачати фільм українською



відео для новачків



 Зареєстрований:   2015-02-18 19:39
 Розмір:   6.77 GB 
 Оцінка фільму:   8.7/10 (Голосів: 15)
   
Soturi 
Свій


З нами з: 23.01.15
Востаннє: 03.04.15
Повідомлень: 131

2015-02-18 20:40  
Треба додати укр. постер
Додано через 4 хвилини 1 секунду:

MediaInfo зробіть укр. або англ.

Leonb28 
Новенький


З нами з: 28.12.14
Востаннє: 04.12.16
Повідомлень: 9

2015-02-18 21:44  
Soturi
Дякую, виправив.

igor911 
Відео Гуртом
Відео Гуртом


З нами з: 18.01.08
Востаннє: 10.12.16
Повідомлень: 5209

2015-02-19 13:11  
Leonb28, викладай МедіаІнфо з повною інформацією про відеоряд, поки ставлю недооформлено.

Додано через 1 хвилину 34 секунди:

і обов'язково вказуй в релізах з MPEG-H/HEVC/H.265 про несумісність даних релізів з "залізними" програвачами.

Mr Yuran 
Відео Гуртом - команда HD
Відео Гуртом - команда HD


З нами з: 15.11.11
Востаннє: 09.12.16
Повідомлень: 378

2015-02-20 01:05  
Знову нове відео супер кодека
Leonb28 написано:
Bits/(Pixel*Frame) : 0.169

Судячи по скрінам тут явна нестача бітрейту. 3-й і 5-й скрін взагалі жахливі, інші теж не кращі.
Потрібні порівняльні скріншоти оригінал (диск або ремукс) - ріп

Leonb28 
Новенький


З нами з: 28.12.14
Востаннє: 04.12.16
Повідомлень: 9

2015-02-20 11:55  
Нестача бітрейту в динаміці майже не відчувається. Проте 1920х800 на великих екранах виглядає набагато приємніше, ніж 720x576 DVD-9 при розмірі в 6 Гб. Та й кожен сам вирішує, що і в якій якості йому дивитись. Для мене, наприклад, різниця в 3-4 Гб при обмеженій швидкості суттєва.
Mr Yuran 
Відео Гуртом - команда HD
Відео Гуртом - команда HD


З нами з: 15.11.11
Востаннє: 09.12.16
Повідомлень: 378

2015-02-20 12:32  
Leonb28 написано:
Проте 1920х800 на великих екранах виглядає набагато приємніше, ніж 720x576 DVD-9 при розмірі в 6 Гб.

Згоден, частково. Але все залежить від ріпу. Адже HD перш за все не тільки розмір кадру, а і якість ріпу. І задача ріпу не просто зменшити розмір відеофайлу, а зробити це з мінімальною втратою якості.
Leonb28 написано:
Нестача бітрейту в динаміці майже не відчувається.

Якісний 720p ріп буде виглядати не гірше, а скоріш за все краще. А якщо не вдивлятися в екран, то і якість SD ріпів буде прийнятною.
Leonb28 написано:
Для мене, наприклад, різниця в 3-4 Гб при обмеженій швидкості суттєва.

Цитата:
Макс. швидкість: 116 KB/s, 2 MB/s

Якщо ви створюєте ріп для людей, то питання швидкості відносне. Звісно перший сід з'явиться не одразу, а далі все буде залежати від людей.
А для завантажування швидкість 1-2 MB/s нормальна.

P.S. Я вже казав. Кожне відео по різному кодуються. Якщо відео потребує більшого бітрейту (багато темних сцен, зернистість), то варто збільшувати бітрейт. А якщо когось лякає великі розміри файлів, то є відео менших розмірів.

P.P.S. Щодо швидкості. На толоці є багато людей, які при відносно низькій швидкості віддачі, роздали цілі терабайти.

Ну і звісно це все моя власна думка.

NeetScrool 
Відео Гуртом - фільмокрай
Відео Гуртом - фільмокрай


З нами з: 10.01.13
Востаннє: 10.12.16
Повідомлень: 2226

2015-02-20 12:59  
Leonb28 написано:
Проте 1920х800 на великих екранах виглядає набагато приємніше

Leonb28 написано:
при обмеженій швидкості суттєва.

Я перефразую:
Ви купили хамер, але не маєте грошей на бензин.

Leonb28 
Новенький


З нами з: 28.12.14
Востаннє: 04.12.16
Повідомлень: 9

2015-02-20 13:14  
Дякую за коментарі. Коли буду кодувати сам, обов'язково врахую усе вище сказане.
Просто більшість роздач викладають з різних джерел і не найкращої якості (міняти щось немає сенсу). Як кажуть : що маємо, те маємо!
А коли самому кодувати із оригінального BluRay, наприклад, то можливо досягнути і кращих параметрів.
P.S. Згоден на рахунок 720 і SD ріпів. А взагалі рахую, що навіть найвища якість (усякі там 4К, 8К) не врятує відверто слабкий фільм від провалу.

Mr Yuran 
Відео Гуртом - команда HD
Відео Гуртом - команда HD


З нами з: 15.11.11
Востаннє: 09.12.16
Повідомлень: 378

2015-02-20 13:32  
Leonb28 написано:
Як кажуть : що маємо, те маємо!

Якщо користуватися цим принципом, то і лайно можна купити, і їсти його спокійно.
Якщо ви викладаєте чужі ріпи, то дивіться параметри відео, а ще враховуйте наочну якість. Більш того, варто викладати з джерел із гарною репутацією.

У нас тут була ситуація, коли хотіли викладати 1080p ріпи з бітрейтом близько 1-1.5 мб/с. На щастя не пройшло.

Ще таке питання. Чуму ви вирішили викладати h265 ріпи?

Leonb28 
Новенький


З нами з: 28.12.14
Востаннє: 04.12.16
Повідомлень: 9

2015-02-20 13:44  
NeetScrool написано:

Я перефразую:
Ви купили хамер, але не маєте грошей на бензин.

Справа не стільки у швидкості, скільки у необхідності. Я мав на увазі, що коли вибираєш між фільмом, наприклад, 10 Гб та 6 Гб, то маючи колекцію (скажімо на 200) фільмів, ця різниця у 4Гб буде займати 800 Гб. А з теперішніми цінами на HDD! Робіть висновки!
P.S. І до чого тут хамер? Зараз у багатьох звичайні 32-40'' екрани(рівень хіба що якогось ланоса).

Додано через 1 хвилину 41 секунду:

Mr Yuran
Так в основному через розмір і як ви написали наочну якість.

Mr Yuran 
Відео Гуртом - команда HD
Відео Гуртом - команда HD


З нами з: 15.11.11
Востаннє: 09.12.16
Повідомлень: 378

2015-02-20 20:11  
Leonb28
Щодо хамера. Малось на увазі, що люди купують великі телевізори, а про доступність якісного контенту не задумуються. Адже 40" екрани потребують якісного відео. Ідеальним варіантом був би Remux. Про 4К телевізори я промовчу.
Щодо диску. Якого б розміру фільми ви б не записували, рано чи пізно настане момент, коли диск буде переповнений. А якщо ви бажаєте тримати супер колекцію фільмів, то тут варто потратитись на носії.
Додам про економію розміру:
Leonb28 написано:

Audio #2
Stream size : 1.20 GiB (18%)
Title : 5.1 @ 1510 kbps
Language : English


Щодо кодека. Чому я питав? Бо розробники стверджують, що кодек з часом дозволить стискати відео, з бітрейтом в 2 рази меншим, ніж h264. Коли той час наступить поки невідомо. Але деякі люди створюють ріпи з заниженим бітрейтом і кажуть, що це нормально.

Я зробив кілька порівняльних скріншотів. Викладаю їх в такій послідовності - ремукс (з іншого сайту) /// На межі майбутнього / Edge of Tomorrow (2014) 1080p Ukr/Eng | Sub Ukr/Eng /// власне ваш ріп /// На межі майбутнього / Edge of Tomorrow (2014) 720p Ukr/Eng | Sub Ukr/Eng розтягнутий 1080p
Про 720p ріп одразу скажу, що там потрійна втрата якості - ресайз, кодування і знову ресайз

Спершу досить світлі сцени:
*










Перші дві сцени непогані, хоча спостерігається розмитість. Третя, загалом, нормально - там специфіка сцени. Четверта нормальна.

А тепер дві темніші сцени і одна динамічна:
*







Перша сцена дещо зерниста. Тут явна розмитість і ніяка передача темних кольорів. Друга сцена - аналогічно. Динамічна сцена - відносно. Спостерігається розмитість. Десь більше, десь менше.

А тепер темні сцени:
*







Перша сцена розмитість і жахлива передача темних кольорів. На другій про розмитість важко судити. А третя - без коментарів.

Хоча варто додати, що в цьому ріпі краще кодовані світлі сцени без зернистості, ніж спостерігалось кілька місяців тому.

Leonb28 
Новенький


З нами з: 28.12.14
Востаннє: 04.12.16
Повідомлень: 9

2015-02-20 21:44  
Англійську лишив, бо багато хто полюбляє дивитись в оригіналі із субтитрами. На рахунок Remux повністю погоджуюсь (та й якщо прибрати іноземні доріжки, матимемо 20-30 Гб із суперовою якістю).
Кодек можливо і принесе результат, якщо знову не з'явиться щось нове. Тим більше зараз, коли йде стрімкий розвиток і об'єм інформації зростає, а його необхідно помістити на усе тих же носіях (DVD, BluRay) Як варіант випуск нових накопичувачів або зберігання у мережі.

NeetScrool 
Відео Гуртом - фільмокрай
Відео Гуртом - фільмокрай


З нами з: 10.01.13
Востаннє: 10.12.16
Повідомлень: 2226

2015-02-20 22:29  
Leonb28 написано:
об'єм інформації зростає, а його необхідно помістити на усе тих же носіях (DVD, BluRay)

Я вже забув коли останнього разу щось вставляв у свій DVD-ROM.
Найкращі показники ціна/об'єм - це HDD.

Leonb28 
Новенький


З нами з: 28.12.14
Востаннє: 04.12.16
Повідомлень: 9

2015-02-20 23:10  
NeetScrool
Та я так само, навіть вінду із флешки ставлю. Просто якщо говорити про ліцензію, то наш ринок ще не повністю готовий до цифрової дистрибуції, хоча вже є певний прогрес (у плані ігор, софту), тому і диски ще не зникли.
Для дому ж звичайно лише HDD. Хоча при сьогоднішніх курсах валют показники ціна/об'єм важко назвати найкращимиHappy

Arctos 
Новенький


З нами з: 14.12.14
Востаннє: 02.04.15
Повідомлень: 1

2015-02-26 02:04  
Дякую що виклали в такому форматі)прийшлось трохи попотів щоб оновити плеєр)
alexshab 
Новенький


З нами з: 03.03.15
Востаннє: 09.12.16
Повідомлень: 18

2016-03-07 19:04  
Гарний фільм!
Ваш часовий пояс: GMT + 2 Години

Нова тема   Відповісти