Завантажити та скачати торренти українською


Під Левом - Під Левом 1982 - 1986 (2003) [FLAC] | Pop

Нові коментарі

Нова тема   Відповісти
Автор Повідомлення
Gienek_Lwow 
VIP


З нами з: 28.09.10
Востаннє: 06.12.16
Повідомлень: 541

2015-02-17 22:09  
Під Левом - Під Левом 1982 - 1986 (2003) [FLAC] | Pop

Під Левом - Під Левом 1982 - 1986 (2003) [FLAC] | Pop


Стиль: Pop, Jazz Rock
Країна, місто: Україна, Львів
Видавець: студія "МД" Маркіян Дрібнюк
Виконавці:
гітара - Борис Півоваров
бас-гітара - Олександр Балаян
гітара - Борис Розентул
ударні - Сергій Малихін
вокал - Олег Гольденберг, Орест Жукевич
клавішні - Володимир Бринських
звукорежисер - Маркіян Дрібнюк

Пісні:
    01. Купальська прикмета (муз. Юрій Варум, сл. Максим Міщенко)
    02. Метелик (муз. Віктор Морозов, сл. Віктор Щербицький)
    03. Я сумею тебя отогреть (сл. і муз. Володимир Бринських)
    04. Тече річка (сл. і муз. Ярослав Виджак)
    05. Марія (муз. Роман Хабаль, сл. Ганна Канич)
    06. Голуби (сл. і муз. Борис Півоваров)
    07. Чекай (сл. і муз. Олександр Левінсон)
    08. Дощова субота (муз. Роман Хабаль, сл. Дагмара Дувіряк)
    09. Вітаю (муз. Роман Хабаль, сл. Ганна Канич)
    10. Кода

Тривалість: 00:37:26
Мова: українська, російська (3, 6), без слів (10)
Аудіо-кодек: FLAC
Бітрейт: 838 кб/с
Джерело: копія ріпу міні диску на CD-R Cаша Михайлів, ріп Gienek_Lwow
Додаткова інформація:
У 80-ті роки, минулого століття, у м. Львів на Площі Ринок 20, знаходився відомий всім мешканцям міста елітний Ресторан "Під Левом".
У вечірні часи публіку розважали музиканти камерного оркестру, співав у ресторані Ігор Білозір, бував Володимир Івасюк, та багато інш.
Свою творчість також пропонувала слухачеві вокально-інструментальна група з одноіменною назвою "Під Левом" і це в них не погано на мою думку виходило.
Пісні групи було записано на ппівку звукорежисером Маркіяном Дрібнюком і перенесено на міні диск (MD), в подальшому перенесені на ПК, та реставровані на його ж студії "МД" у 2003 році.
На прохання мого товариша Сашка Михайліва, Маркіян зробив йому копію запису на компакт диск.
Тепер і ви маєте можливість ознайомитись з творчістю групи "Під Левом".
Звичайно це не повний репертуар виконавців.
Маємо на даний час, тільки цей запис і тільки в якості MD-СD.
Log EAC

Exact Audio Copy V0.99 prebeta 5 from 4. May 2009

Звіт EAC про видобування, котре виконане 17. лютого 2015, 19:49

група Під Левом / Під Левом 1982 - 1986

Дисковод: TSSTcorpDVD-ROM SH-D162D Adapter: 0 ID: 0

Режим читання : Точний
Використати точний потік : Так
Вимкнути аудіо кеш : Так
Застосувати мітки C2 : Ні

Корекція зміщення при читанні : 6
Екстрачитання областей Lead-in і Lead-out : Ні
Заповнення пропущених семплів тишею : Так
Видалення блоків з тишею на початку і кінці : Ні
При вирахуванні CRC використовувались нульові семпли : Так
Використаний інтерфейс : 'Рідний' Win32-інтерфейс для Win NT/2000

Застосований вихідний формат : Внутрішні WAV-операції
Формат семпла : 44.100 Гц; 16 біт; стерео

TOC видобутого CD

Трек | Старт | Довжина | Початковий сектор | Кінцевий сектор
------------------------------------------------------------------
1 | 0:00.00 | 4:45.25 | 0 | 21399
2 | 4:45.25 | 2:59.60 | 21400 | 34884
3 | 7:45.10 | 3:57.65 | 34885 | 52724
4 | 11:43.00 | 4:08.55 | 52725 | 71379
5 | 15:51.55 | 4:21.70 | 71380 | 91024
6 | 20:13.50 | 4:00.00 | 91025 | 109024
7 | 24:13.50 | 4:29.20 | 109025 | 129219
8 | 28:42.70 | 3:46.17 | 129220 | 146186
9 | 32:29.12 | 4:09.45 | 146187 | 164906
10 | 36:38.57 | 0:47.29 | 164907 | 168460

Статус діапазону і помилки

Обраний діапазон

Ім'я файлу C:\Documents and Settings\Евгений\Рабочий стол\Новая папка\група Під Левом - Під Левом 1982 - 1986.wav

Піковий рівень 100.0 %
Якість діапазону 100.0 %
CRC тесту B25CE3CB
CRC копії B25CE3CB
Копіювання... OK

Помилки не траплялися

Кінець звіту


Срібний реліз (на рейтинг впливає 50% завантаженого)
 Трекер:    Зареєстрований   

Завантажити / скачати українську музику



відео для новачків



 Зареєстрований:   2015-02-17 22:09
 Розмір:   227 MB 
 Оцінка музики:   8.3/10 (Голосів: 6)
   
gorislavets 
VIP


З нами з: 29.03.11
Востаннє: 28.11.16
Повідомлень: 372

2015-02-17 22:27  
Записи були зроблені у 80-х роках (не виключено, що музиканти мріяли видати свій альбом), а на міні-диск перенесені пізніше, бо тоді таких носіїв просто не існувало.
Трек 10, який на обкладинці подано без назви, краще назвати "Кода" (музичний термін, означає закінчення твору), тому що "Інтро" - це початок.
Гітаристом гурту був Борис Пивоваров, якого західні радіостанції називали "найкращим гітаристом СРСР".

Gienek_Lwow 
VIP


З нами з: 28.09.10
Востаннє: 06.12.16
Повідомлень: 541

2015-02-17 22:41  
gorislavets
вніс уточнення в описі

gorislavets 
VIP


З нами з: 29.03.11
Востаннє: 28.11.16
Повідомлень: 372

2015-02-27 00:28  
Клавішник гурту Володимир Бринських тільки що написав мені, що на цих записах гітари Б. Розентула нема, всі гітарні партії записані виключно Борисом Пивоваровим. Але на фото Пивоваров відсутній, зліва - направо:
Балаян
Жукевич
Малихін
Гольденберг
Розентул
Бринських
І ще: автор слів пісні "Я сумею тебя отогреть" Сімон Осіашвілі, поет-пісняр зі Львова.

Ваш часовий пояс: GMT + 2 Години

Нова тема   Відповісти