Завантажити та скачати торренти українською


Любисток - L'ubystok (1998) [FLAC] | Folk

Нові коментарі

Нова тема   Відповісти
Автор Повідомлення
Gienek_Lwow 
VIP


З нами з: 28.09.10
Востаннє: 11.12.16
Повідомлень: 541

2015-02-17 18:47  
Любисток - L'ubystok (1998) [FLAC] | Folk

Любисток - L'ubystok (1998) [FLAC] | Folk


Стиль: Folk, Instrumental
Країна, місто: Україна, Львів
Видавець: Studio "Melos"
Виконавці:
Ханас Наталя - скрипка, вокал
Кука Надя - вокал, бандура
Мельничук Оксана - вокал, кобза
Кука Іван - сопілка, віолончель
Пісні:
    01. Verhovyna
    02. Teche Richka
    03. Vasyl'
    04. Paperushko
    05. Maryna
    06. Majeran
    07. Andrijko
    08. Bukovyna
    09. Cherevychky
    10. Chardash
    11. O. Bilash 'Na Сhornobyl zhuravli letily'
    12. Bojky
    13. Rano jak sonechko
    14. Zhajvir
    15. V kalinovim lisi
    16. Kachini 'Ave Maria'

Тривалість: 00:51:28
Мова: українська, інструментал (1,3,8,10,12,14)
Аудіо-кодек: FLAC
Бітрейт: 812 кб/с
Джерело: копія диску (CD-R) Cаша Михайлів, ріп Gienek_Lwow
Додаткова інформація:
Спектр
Любисток - L'ubystok (1998) [FLAC] | Folk
Log EAC

Exact Audio Copy V0.99 prebeta 5 from 4. May 2009

Звіт EAC про видобування, котре виконане 17. лютого 2015, 18:19

Любисток / L'ubystok

Дисковод: TSSTcorpDVD-ROM SH-D162D Adapter: 0 ID: 0

Режим читання : Точний
Використати точний потік : Так
Вимкнути аудіо кеш : Так
Застосувати мітки C2 : Ні

Корекція зміщення при читанні : 6
Екстрачитання областей Lead-in і Lead-out : Ні
Заповнення пропущених семплів тишею : Так
Видалення блоків з тишею на початку і кінці : Ні
При вирахуванні CRC використовувались нульові семпли : Так
Використаний інтерфейс : 'Рідний' Win32-інтерфейс для Win NT/2000

Застосований вихідний формат : Кодер Користувача
Обраний бітрейт : 128 kBit/s
Якість : Високий
Додати тег ID3 : Ні
Компресор командного рядка : C:\Program Files\Exact Audio Copy\Flac\flac.exe
Додаткові параметри командного рядка : -V -8 -T "Date=%year%" -T "Genre=%genre%" %source%

TOC видобутого CD

Трек | Старт | Довжина | Початковий сектор | Кінцевий сектор
------------------------------------------------------------------
1 | 0:00.00 | 2:31.65 | 0 | 11389
2 | 2:31.65 | 2:34.36 | 11390 | 22975
3 | 5:06.26 | 3:05.21 | 22976 | 36871
4 | 8:11.47 | 3:47.49 | 36872 | 53945
5 | 11:59.21 | 2:23.02 | 53946 | 64672
6 | 14:22.23 | 2:44.20 | 64673 | 76992
7 | 17:06.43 | 3:18.35 | 76993 | 91877
8 | 20:25.03 | 2:30.64 | 91878 | 103191
9 | 22:55.67 | 2:06.58 | 103192 | 112699
10 | 25:02.50 | 5:21.36 | 112700 | 136810
11 | 30:24.11 | 3:56.31 | 136811 | 154541
12 | 34:20.42 | 3:57.14 | 154542 | 172330
13 | 38:17.56 | 2:37.65 | 172331 | 184170
14 | 40:55.46 | 2:38.18 | 184171 | 196038
15 | 43:33.64 | 2:36.04 | 196039 | 207742
16 | 46:09.68 | 5:17.61 | 207743 | 231578

Статус діапазону і помилки

Обраний діапазон

Ім'я файлу C:\Documents and Settings\Евгений\Рабочий стол\Новая папка\Любисток - L'ubystok.wav

Піковий рівень 100.0 %
Якість діапазону 100.0 %
CRC тесту 787A4294
CRC копії 787A4294
Копіювання... OK

Помилки не траплялися

Кінець звіту


Якщо Ви справді бажаєте підтримати українське - після прослуховування, якщо музика вам сподобалась, придбайте ліцензійний диск. Підтримаймо вітчизняних виконавців!


Срібний реліз (на рейтинг впливає 50% завантаженого)
 Трекер:    Зареєстрований   

Завантажити / скачати українську музику



відео для новачків



 Зареєстрований:   2015-02-17 18:47
 Розмір:   301 MB 
 Оцінка музики:   10/10 (Голосів: 7)
   
ssTAss 
Модератор музики


З нами з: 05.07.08
Востаннє: 11.12.16
Повідомлень: 10959

2015-02-17 19:47  
викладіть лог-файл
Gienek_Lwow 
VIP


З нами з: 28.09.10
Востаннє: 11.12.16
Повідомлень: 541

2015-02-17 20:34  
ssTAss написано:
викладіть лог-файл
Log EAC

Exact Audio Copy V0.99 prebeta 5 from 4. May 2009

Звіт EAC про видобування, котре виконане 17. лютого 2015, 18:19

Любисток / L'ubystok

Дисковод: TSSTcorpDVD-ROM SH-D162D Adapter: 0 ID: 0

Режим читання : Точний
Використати точний потік : Так
Вимкнути аудіо кеш : Так
Застосувати мітки C2 : Ні

Корекція зміщення при читанні : 6
Екстрачитання областей Lead-in і Lead-out : Ні
Заповнення пропущених семплів тишею : Так
Видалення блоків з тишею на початку і кінці : Ні
При вирахуванні CRC використовувались нульові семпли : Так
Використаний інтерфейс : 'Рідний' Win32-інтерфейс для Win NT/2000

Застосований вихідний формат : Кодер Користувача
Обраний бітрейт : 128 kBit/s
Якість : Високий
Додати тег ID3 : Ні
Компресор командного рядка : C:\Program Files\Exact Audio Copy\Flac\flac.exe
Додаткові параметри командного рядка : -V -8 -T "Date=%year%" -T "Genre=%genre%" %source%

TOC видобутого CD

Трек | Старт | Довжина | Початковий сектор | Кінцевий сектор
------------------------------------------------------------------
1 | 0:00.00 | 2:31.65 | 0 | 11389
2 | 2:31.65 | 2:34.36 | 11390 | 22975
3 | 5:06.26 | 3:05.21 | 22976 | 36871
4 | 8:11.47 | 3:47.49 | 36872 | 53945
5 | 11:59.21 | 2:23.02 | 53946 | 64672
6 | 14:22.23 | 2:44.20 | 64673 | 76992
7 | 17:06.43 | 3:18.35 | 76993 | 91877
8 | 20:25.03 | 2:30.64 | 91878 | 103191
9 | 22:55.67 | 2:06.58 | 103192 | 112699
10 | 25:02.50 | 5:21.36 | 112700 | 136810
11 | 30:24.11 | 3:56.31 | 136811 | 154541
12 | 34:20.42 | 3:57.14 | 154542 | 172330
13 | 38:17.56 | 2:37.65 | 172331 | 184170
14 | 40:55.46 | 2:38.18 | 184171 | 196038
15 | 43:33.64 | 2:36.04 | 196039 | 207742
16 | 46:09.68 | 5:17.61 | 207743 | 231578

Статус діапазону і помилки

Обраний діапазон

Ім'я файлу C:\Documents and Settings\Евгений\Рабочий стол\Новая папка\Любисток - L'ubystok.wav

Піковий рівень 100.0 %
Якість діапазону 100.0 %
CRC тесту 787A4294
CRC копії 787A4294
Копіювання... OK

Помилки не траплялися

Кінець звіту

Ваш часовий пояс: GMT + 2 Години

Нова тема   Відповісти