Завантажити та скачати торренти українською


MORiA - Pain Shreds (2011) [FLAC] | Thrash/Groove Metal

Нові коментарі

Нова тема   Відповісти
Останній раз роздавалося AND-reX (2015-02-18)
Автор Повідомлення
AND-reX 
Новенький


З нами з: 05.04.14
Востаннє: 07.12.16
Повідомлень: 15

2015-02-16 14:37  
MORiA - Pain Shreds (2011) [FLAC] | Thrash/Groove Metal

MORiA - Pain Shreds (2011) [FLAC] | Thrash/Groove Metal


Стиль: Thrash/Groove Metal
Країна, місто: Україна, Київ
Видавець: More Hate Productions
Виконавці:
Олег Маk - вокал
Олексій Пасько - гітара
Ігор Ломонос - бас-гітара
Володимир Шапкун - ударні
Пісні:
    01. Battle Is Your Pain (Feat. Alexader Baev Of Hell:ON)
    02. Revolution (Feat. Ardentis Of Stardown)
    03. Hate / War
    04. Dead Memory
    05. Fragments Of Thoughts
    06. The Outlaw
    07. Open The Road
    08. Clouded Mind (Feat. Iowa Of Ungrace)
    09. My World
    10. Truth And Lie (Feat. Kate Moray Of Moray Eel)

Тривалість: 00:41:31
Мова: англійська
Аудіо-кодек: FLAC
Бітрейт: 980 кб/с
Джерело: Інтернет
"Лог:"

Exact Audio Copy V1.0 beta 3 from 29. August 2011

EAC extraction logfile from 12. September 2012, 1:15

Moria / Pain Shreds

Used drive : PLEXTOR DVDR PX-860A Adapter: 4 ID: 0

Read mode : Secure
Utilize accurate stream : Yes
Defeat audio cache : Yes
Make use of C2 pointers : No

Read offset correction : 96
Overread into Lead-In and Lead-Out : No
Fill up missing offset samples with silence : Yes
Delete leading and trailing silent blocks : No
Null samples used in CRC calculations : Yes
Used interface : Installed external ASPI interface

Used output format : User Defined Encoder
Selected bitrate : 1024 kBit/s
Quality : High
Add ID3 tag : No
Command line compressor : C:\Program Files\Exact Audio Copy\FLAC.EXE
Additional command line options : -V -8 -T "Date=%year%" -T "Genre=%genre%" %source%

TOC of the extracted CD

Track | Start | Length | Start sector | End sector
---------------------------------------------------------
1 | 0:00.00 | 5:05.53 | 0 | 22927
2 | 5:05.53 | 3:19.22 | 22928 | 37874
3 | 8:25.00 | 3:23.28 | 37875 | 53127
4 | 11:48.28 | 4:00.29 | 53128 | 71156
5 | 15:48.57 | 4:17.56 | 71157 | 90487
6 | 20:06.38 | 3:37.13 | 90488 | 106775
7 | 23:43.51 | 4:23.07 | 106776 | 126507
8 | 28:06.58 | 4:05.67 | 126508 | 144949
9 | 32:12.50 | 4:58.12 | 144950 | 167311
10 | 37:10.62 | 4:20.10 | 167312 | 186821
11 | 44:02.72 | 22:53.68 | 198222 | 301264

Range status and errors

Selected range

Filename J:\MUSIC\Moria - Pain Shreds.wav

Peak level 97.7 %
Extraction speed 6.6 X
Range quality 99.9 %
Test CRC A59E3FF2
Copy CRC A59E3FF2
Copy OK

No errors occurred

AccurateRip summary

Track 1 not present in database
Track 2 not present in database
Track 3 not present in database
Track 4 not present in database
Track 5 not present in database
Track 6 not present in database
Track 7 not present in database
Track 8 not present in database
Track 9 not present in database
Track 10 not present in database

None of the tracks are present in the AccurateRip database

End of status report

==== Log checksum 3211DBD42A7FE752CC58D52DC44663DAD7047EA1CFAEB6E5D2F6E0C4D9056AA8 ====


Срібний реліз (на рейтинг впливає 50% завантаженого)
 Трекер:    Зареєстрований   

Завантажити / скачати українську музику



відео для новачків



 Зареєстрований:   2015-02-16 14:37
 Розмір:   296 MB 
 Оцінка музики:   5.5/10 (Голосів: 2)
   
Ваш часовий пояс: GMT + 2 Години

Нова тема   Відповісти