Завантажити та скачати торренти українською


Hell:ON - Age Of Oblivion (2012) [FLAC] | Thrash/Death Metal

Нові коментарі

Нова тема   Відповісти
Останній раз роздавалося AND-reX (2015-02-19)
Автор Повідомлення
AND-reX 
Новенький


З нами з: 05.04.14
Востаннє: 01.12.16
Повідомлень: 15

2015-02-15 13:50  
Hell:ON - Age Of Oblivion (2012) [FLAC] | Thrash/Death Metal

Hell:ON - Age Of Oblivion (2012) [FLAC] | Thrash/Death Metal


Стиль: Thrash/Death Metal
Країна, місто: Україна, Запоріжжя
Сайти: Офіційний сайт
Видавець: Total Metal Records (Україна) / MSR Productions (Россія) / Code7/PHD (Англія)
Виконавці:
Олександр Баєв - вокал
Антон Ворожцов - гітара
Олексій Пасько - гітара
Олександр Сітало - бас-гітара
Олег Таланів - ударні
Пісні:
    01. Disaster
    02. Bottom Line
    03. Rise
    04. Let It Feed
    05. My Doll (Feat. Jeff Waters Of Annihilator)
    06. Punk Guys (Мастер Cover)
    07. Emptiness
    08. Burn
    09. In the Name Of...
    10. Voices Of The Abyss
    11. Satan

Тривалість: 00:44:21
Мова: англійська
Аудіо-кодек: FLAC
Бітрейт: 1056 кб/с
Джерело: Інтернет
"Лог:"

Exact Audio Copy V1.0 beta 3 from 29. August 2011

EAC extraction logfile from 19. September 2013, 21:00

Hell:On / Age Of Oblivion

Used drive : HL-DT-STDVDRAM GH22NS50 Adapter: 1 ID: 1

Read mode : Secure
Utilize accurate stream : Yes
Defeat audio cache : Yes
Make use of C2 pointers : No

Read offset correction : 667
Overread into Lead-In and Lead-Out : No
Fill up missing offset samples with silence : Yes
Delete leading and trailing silent blocks : No
Null samples used in CRC calculations : Yes
Used interface : Native Win32 interface for Win NT & 2000

Used output format : User Defined Encoder
Selected bitrate : 128 kBit/s
Quality : High
Add ID3 tag : No
Command line compressor : C:\Program Files\Exact Audio Copy\Flac\flac.exe
Additional command line options : -V -8 -T "Genre=%genre%" -T "Artist=%artist%" -T "Title=%title%" -T "Album=%albumtitle%" -T "Date=%year%" -T "Tracknumber=%tracknr%" -T "Comment=%comment%" %source%

TOC of the extracted CD

Track | Start | Length | Start sector | End sector
---------------------------------------------------------
1 | 0:00.00 | 2:45.25 | 0 | 12399
2 | 2:45.25 | 3:04.73 | 12400 | 26272
3 | 5:50.23 | 3:19.19 | 26273 | 41216
4 | 9:09.42 | 4:08.62 | 41217 | 59878
5 | 13:18.29 | 4:30.34 | 59879 | 80162
6 | 17:48.63 | 2:41.34 | 80163 | 92271
7 | 20:30.22 | 3:53.68 | 92272 | 109814
8 | 24:24.15 | 3:29.42 | 109815 | 125531
9 | 27:53.57 | 4:12.37 | 125532 | 144468
10 | 32:06.19 | 4:47.66 | 144469 | 166059
11 | 36:54.10 | 7:06.30 | 166060 | 198039

Range status and errors

Selected range

Filename D:\Сircle of Friends\Atreyu\Hell-On\Hell-On - Age of Oblivion\Hell-On - Age Of Oblivion.wav

Peak level 99.7 %
Extraction speed 1.6 X
Range quality 100.0 %
Test CRC 892661E1
Copy CRC 892661E1
Copy OK

No errors occurred

AccurateRip summary

Track 1 not present in database
Track 2 not present in database
Track 3 not present in database
Track 4 not present in database
Track 5 not present in database
Track 6 not present in database
Track 7 not present in database
Track 8 not present in database
Track 9 not present in database
Track 10 not present in database
Track 11 not present in database

None of the tracks are present in the AccurateRip database

End of status report

---- CUETools DB Plugin V2.1.4

[CTDB TOCID: sfUt90g9w0C8ADU365woVjFB4LI-] disk not present in database
Submit result: sfUt90g9w0C8ADU365woVjFB4LI- has been uploaded

==== Log checksum F8BFBE4B71776F4A8856FE43F48EBC57285B997CF4AC40B109D6B79C526EB89D ====
Якщо Ви справді бажаєте підтримати українське - після прослуховування, якщо музика вам сподобалась, придбайте ліцензійний диск. Підтримаймо вітчизняних виконавців!


Срібний реліз (на рейтинг впливає 50% завантаженого)
 Трекер:    Зареєстрований   

Завантажити / скачати українську музику



відео для новачків



 Зареєстрований:   2015-02-15 13:50
 Розмір:   389 MB 
 Оцінка музики:   10/10 (Голосів: 2)
   
Ваш часовий пояс: GMT + 2 Години

Нова тема   Відповісти